<?xml version="1.0" standalone="no"?>
<!DOCTYPE svg PUBLIC "-//W3C//DTD SVG 1.1//EN" "http://www.w3.org/Graphics/SVG/1.1/DTD/svg11.dtd" >
<svg xmlns="http://www.w3.org/2000/svg" xmlns:xlink="http://www.w3.org/1999/xlink" version="1.1">
<metadata></metadata>
<defs>
<font id="houschka_roundedmedium" horiz-adv-x="1228" >
<font-face units-per-em="2048" ascent="1556" descent="-492" />
<missing-glyph horiz-adv-x="520" />
<glyph unicode="&#xfb01;" horiz-adv-x="1013" d="M37 866q0 24 17.5 41t41.5 17h99v139q0 350 315 350q133 0 235 -41q93 -39 93 -94q0 -27 -17.5 -44t-52.5 -17q-22 0 -86 30q-76 37 -152 37q-101 0 -143.5 -61.5t-42.5 -180.5v-118h447q35 0 54 -20t19 -52v-801q0 -29 -22 -50t-51 -21q-32 0 -54 21t-22 50v754h-371 v-754q0 -29 -21.5 -50t-52.5 -21t-53 21t-22 50v754h-99q-25 0 -42 17.5t-17 43.5z" />
<glyph unicode="&#xfb02;" horiz-adv-x="1015" d="M37 866q0 24 17.5 41t41.5 17h99v141q0 74 16 133.5t51.5 109.5t100 77.5t153.5 27.5q142 0 236 -43q69 -29 91.5 -67t22.5 -105v-1147q0 -29 -22 -50t-51 -21q-31 0 -53.5 21t-22.5 50v1145q0 35 -51 62.5t-131 27.5q-102 0 -146.5 -61.5t-44.5 -180.5v-120h248 q24 0 40.5 -17t16.5 -41q0 -26 -16 -43.5t-41 -17.5h-248v-754q0 -29 -21.5 -50t-52.5 -21t-53 21t-22 50v754h-99q-25 0 -42 17.5t-17 43.5z" />
<glyph unicode="&#xfb03;" horiz-adv-x="1558" d="M37 866q0 24 17.5 41t41.5 17h99v153q0 68 14 124t44.5 102t84.5 72t127 26q100 0 180 -41q78 -38 78 -88q0 -25 -13.5 -41.5t-35.5 -16.5q-7 0 -14 2.5t-23.5 12t-26.5 14.5q-49 25 -110 25q-86 0 -121 -52t-35 -149v-143h397v139q0 350 316 350q129 0 235 -45 q92 -36 92 -90q0 -27 -17 -44t-52 -17q-9 0 -18.5 2.5t-16 5.5t-22.5 11t-27 13q-76 37 -154 37q-101 0 -143.5 -62t-42.5 -182v-118h444q36 0 56 -20t20 -52v-801q0 -29 -22.5 -50t-53.5 -21t-52 21t-21 50v754h-371v-754q0 -29 -22.5 -50t-53.5 -21t-52.5 21t-21.5 50v754 h-397v-754q0 -29 -21.5 -50t-52.5 -21t-53 21t-22 50v754h-99q-25 0 -42 17.5t-17 43.5z" />
<glyph unicode="&#xfb04;" horiz-adv-x="1562" d="M37 866q0 24 17.5 41t41.5 17h99v153q0 68 14 124t44.5 102t84.5 72t127 26q100 0 180 -41q78 -38 78 -88q0 -25 -13.5 -41.5t-35.5 -16.5q-7 0 -14 2.5t-23.5 12t-26.5 14.5q-49 25 -110 25q-86 0 -121 -52t-35 -149v-143h397v141q0 348 316 348q133 0 231 -43 q72 -32 98.5 -69.5t26.5 -102.5v-1147q0 -29 -21.5 -50t-52.5 -21t-53 21t-22 50v1145q0 34 -52 62t-133 28q-100 0 -144 -61.5t-44 -180.5v-120h235q23 0 40.5 -17.5t17.5 -40.5q0 -26 -17 -43.5t-41 -17.5h-235v-754q0 -29 -22.5 -50t-53.5 -21t-52.5 21t-21.5 50v754 h-397v-754q0 -29 -21.5 -50t-52.5 -21t-53 21t-22 50v754h-99q-25 0 -42 17.5t-17 43.5z" />
<glyph horiz-adv-x="0" />
<glyph horiz-adv-x="682" />
<glyph unicode=" "  horiz-adv-x="520" />
<glyph unicode="&#x09;" horiz-adv-x="520" />
<glyph unicode="&#xa0;" horiz-adv-x="520" />
<glyph unicode="!" horiz-adv-x="497" d="M145 1233q0 180 105 180q104 0 104 -180q0 -28 -2.5 -64.5t-6.5 -80.5t-5 -62l-39 -586q-3 -61 -51 -61t-51 61l-41 586q-13 192 -13 207zM156 76q0 40 27 67t67 27t66 -27t26 -67t-26 -67t-66 -27t-67 27t-27 67z" />
<glyph unicode="&#x22;" horiz-adv-x="581" d="M80 1339q0 35 19 55.5t53 20.5t52.5 -20.5t18.5 -55.5q0 -30 -2 -69l-16 -236q-3 -32 -14.5 -46.5t-38.5 -14.5t-39 14.5t-15 46.5l-16 236q-2 39 -2 69zM358 1339q0 35 19 55.5t53 20.5t53 -20.5t19 -55.5q0 -30 -2 -69l-17 -236q-3 -32 -14.5 -46.5t-38.5 -14.5 t-38.5 14.5t-14.5 46.5l-17 236q-2 39 -2 69z" />
<glyph unicode="#" horiz-adv-x="1392" d="M0 309q0 25 17 42.5t42 17.5h283l78 370h-262q-25 0 -42.5 17.5t-17.5 42.5t17.5 43t42.5 18h286l78 363q4 23 25.5 36.5t46.5 8.5q23 -6 36 -26.5t9 -43.5l-72 -338h383l76 363q4 23 26 36.5t46 8.5q25 -6 38.5 -26.5t8.5 -43.5l-72 -338h260q25 0 42.5 -18t17.5 -43 t-17.5 -42.5t-42.5 -17.5h-286l-76 -370h264q23 0 40 -17.5t17 -42.5t-17 -43t-40 -18h-291l-76 -363q-6 -25 -26 -37.5t-45 -7.5q-23 5 -36 25t-9 45l69 338h-381l-78 -363q-4 -24 -24.5 -37t-44.5 -8q-25 4 -38.5 24.5t-8.5 45.5l71 338h-258q-25 0 -42 18t-17 43z M465 369h383l76 370h-381z" />
<glyph unicode="$" d="M156 160q0 32 22 54t53 22q16 0 31 -9t44 -29t63 -36q103 -49 233 -49q149 0 224 66.5t75 174.5q0 126 -139 189q-49 23 -182 63t-209 76q-209 95 -209 297q0 151 107 240.5t304 99.5v125q0 17 12 29t31 12t31 -12t12 -29v-123q146 -6 271 -57q24 -10 39.5 -19t30 -27.5 t14.5 -41.5q0 -30 -20 -50t-52 -20q-14 0 -30.5 6.5t-42 18.5t-48.5 20q-115 39 -198 39q-299 0 -299 -211q0 -115 159 -182q46 -19 197.5 -63.5t226.5 -90.5q160 -100 160 -274q0 -169 -110 -270t-298 -115v-119q0 -17 -12 -29t-31 -12t-31 12t-12 29v115q-172 5 -350 96 q-67 33 -67 84z" />
<glyph unicode="%" horiz-adv-x="1343" d="M51 1098q0 129 92.5 221t221.5 92q128 0 220.5 -92t92.5 -221t-92.5 -221.5t-220.5 -92.5q-129 0 -221.5 92t-92.5 222zM137 1098q0 -95 67 -161.5t161 -66.5t160.5 67t66.5 161t-66.5 160.5t-160.5 66.5t-161 -66.5t-67 -160.5zM195 29q0 15 10 32l852 1323q17 29 43 29 q21 0 35 -14t14 -35q0 -18 -10 -31l-850 -1327q-1 -1 -2.5 -3t-2.5 -3.5t-3 -3.5l-3.5 -3.5t-4 -3.5t-4.5 -3l-5 -2.5t-6 -2t-6.5 -1t-7.5 -0.5q-20 0 -34.5 14.5t-14.5 34.5zM666 293q0 129 92.5 221t220.5 92q129 0 221 -92t92 -221t-92 -221t-221 -92q-128 0 -220.5 91.5 t-92.5 221.5zM752 293q0 -95 67 -161t162 -66q94 0 159.5 66t65.5 161q0 94 -65.5 160.5t-159.5 66.5q-95 0 -162 -66.5t-67 -160.5z" />
<glyph unicode="&#x26;" horiz-adv-x="1343" d="M88 387q0 69 23.5 127.5t68 104.5t95 81.5t118.5 69.5q-88 169 -88 299q0 149 88.5 234.5t239.5 85.5q144 0 224.5 -78.5t80.5 -208.5q0 -41 -11 -78.5t-27.5 -66.5t-46 -58.5t-54.5 -50t-66.5 -46t-69 -40.5t-73.5 -39q63 -108 153 -216.5t183 -189.5q39 61 58 130 t30 178q3 27 23 42t44 15q32 0 54 -22.5t22 -53.5q0 -227 -104 -373q63 -46 112 -70.5t107 -39.5q47 -10 47 -64q0 -35 -22 -57t-56 -22q-114 0 -293 135q-154 -135 -383 -135q-215 0 -346 108t-131 299zM240 381q0 -135 91.5 -209t246.5 -74q152 0 258 101 q-109 94 -209 213t-172 241q-105 -58 -160 -120t-55 -152zM455 1069q0 -99 73 -233q120 63 163 96q104 78 104 172q0 79 -42.5 123.5t-119.5 44.5q-81 0 -129.5 -56t-48.5 -147z" />
<glyph unicode="'" horiz-adv-x="303" d="M80 1339q0 35 19 55.5t53 20.5t52.5 -20.5t18.5 -55.5q0 -30 -2 -69l-16 -236q-3 -32 -14.5 -46.5t-38.5 -14.5t-39 14.5t-15 46.5l-16 236q-2 39 -2 69z" />
<glyph unicode="(" horiz-adv-x="544" d="M104 479q0 247 58.5 483.5t187.5 426.5q24 36 64 36q33 0 54 -21t21 -54q0 -28 -14 -56q-211 -387 -211 -815q0 -475 211 -817q14 -25 14 -55q0 -32 -21.5 -53t-53.5 -21q-39 0 -64 35q-246 350 -246 911z" />
<glyph unicode=")" horiz-adv-x="544" d="M53 -393q0 29 17 55q209 343 209 817q0 468 -209 815q-17 28 -17 56q0 33 21.5 54t54.5 21q39 0 66 -36q245 -335 245 -910q0 -563 -245 -911q-25 -35 -66 -35q-32 0 -54 21t-22 53z" />
<glyph unicode="*" horiz-adv-x="866" d="M96 1239q15 46 72 29q7 -2 78 -29l151 -59l-10 163q-4 78 -4 82q0 60 51 60q24 0 36.5 -16.5t12.5 -43.5q0 -4 -4 -82l-8 -163l152 59q65 26 75 29q57 16 72 -29q17 -48 -41 -68l-78 -20l-157 -41l102 -127q41 -47 53 -63q34 -50 -4 -78q-43 -30 -76 18q-7 9 -20.5 30.5 t-26.5 39.5l-88 135l-90 -135q-38 -60 -45 -70q-36 -45 -76 -18q-38 28 -4 78q11 17 51 63l103 127l-156 41q-15 4 -31.5 7.5t-27.5 6t-21 6.5q-25 8 -36.5 26t-4.5 42z" />
<glyph unicode="+" horiz-adv-x="1148" d="M72 723q0 28 20 50t49 22h361v360q0 29 21 49.5t50 20.5t50.5 -20.5t21.5 -49.5v-360h363q27 0 47 -22t20 -50q0 -29 -19.5 -50.5t-47.5 -21.5h-363v-362q0 -28 -21.5 -48t-50.5 -20t-50 20t-21 48v362h-361q-29 0 -49 21t-20 51z" />
<glyph unicode="," horiz-adv-x="401" d="M100 78q0 38 25 64t72 26q55 0 84.5 -36.5t29.5 -100.5q0 -89 -63 -154t-113 -65q-13 0 -22 8t-9 20q0 17 17.5 33t35 35.5t17.5 44.5q0 14 -7.5 25t-18.5 18.5t-22 17t-18.5 25.5t-7.5 39z" />
<glyph unicode="-" horiz-adv-x="1024" d="M174 594q0 28 20.5 49t49.5 21h536q29 0 49.5 -21t20.5 -49q0 -29 -20.5 -50.5t-49.5 -21.5h-536q-29 0 -49.5 21.5t-20.5 50.5z" />
<glyph unicode="." horiz-adv-x="376" d="M100 76q0 39 27.5 65.5t67.5 26.5t67 -26t27 -66t-27 -67t-67 -27t-67.5 27t-27.5 67z" />
<glyph unicode="/" horiz-adv-x="763" d="M-27 51q0 19 15 49l649 1266q24 49 76 49q30 0 52.5 -21.5t22.5 -50.5q0 -23 -14 -51l-649 -1263q-25 -49 -76 -49q-30 0 -53 21t-23 50z" />
<glyph unicode="0" d="M96 696q0 352 132.5 534.5t385.5 182.5t386 -182.5t133 -534.5t-133 -534t-386 -182t-385.5 182t-132.5 534zM258 696q0 -293 94 -430q88 -137 262 -137q172 0 263 137q92 142 92 430q0 290 -92 432q-89 138 -263 138q-172 0 -262 -138q-94 -145 -94 -432z" />
<glyph unicode="1" d="M219 1204q0 50 51 70l332 129q30 10 57 10q36 0 54 -22.5t18 -57.5v-1192h254q28 0 48 -20.5t20 -48.5q0 -30 -20 -51t-48 -21h-688q-29 0 -49.5 20.5t-20.5 51.5q0 28 20.5 48.5t49.5 20.5h270v1096l-245 -96q-14 -6 -33 -6q-29 0 -49.5 18t-20.5 51z" />
<glyph unicode="2" d="M160 76q0 143 30.5 229t104.5 162q58 59 141 109.5t173 99t145 90.5q129 97 129 240q0 108 -68 182q-78 88 -225 88q-105 0 -201 -47q-27 -14 -56.5 -34t-47 -29t-33.5 -9q-31 0 -51.5 19.5t-20.5 52.5t44.5 69t99.5 60q127 55 278 55q103 0 190 -36t148 -101 q98 -109 98 -266q0 -107 -44 -187t-126 -147q-69 -56 -224.5 -141.5t-221.5 -147.5q-49 -45 -67.5 -99t-18.5 -147h657q29 0 49.5 -20.5t20.5 -48.5q0 -31 -20.5 -51.5t-49.5 -20.5h-764q-30 0 -49.5 20t-19.5 56z" />
<glyph unicode="3" d="M154 119q0 30 20.5 50.5t50.5 20.5q20 0 62.5 -21t62.5 -28q81 -30 178 -30q149 0 235.5 75t86.5 199q0 181 -178 244q-65 22 -164 22q-33 0 -55.5 16.5t-22.5 51.5q0 25 18 44t50 19q104 0 170 31q137 59 137 213q0 105 -71.5 176.5t-192.5 71.5q-102 0 -179 -41 q-20 -9 -45.5 -24t-40 -21t-28.5 -6q-31 0 -51.5 20t-20.5 49q0 33 26 55.5t74 45.5q122 61 275 61q183 0 293 -104.5t110 -261.5q0 -112 -57 -196t-168 -124q132 -38 203.5 -129.5t71.5 -224.5q0 -175 -126.5 -284t-336.5 -109q-127 0 -242 28q-145 44 -145 111z" />
<glyph unicode="4" d="M84 387q0 27 16 49l650 922q42 55 88 55q34 0 53.5 -22t19.5 -56v-880h166q26 0 45 -20t19 -48t-19 -48t-45 -20h-166v-262q0 -32 -22.5 -54.5t-54.5 -22.5q-34 0 -57 22.5t-23 54.5v262h-604q-28 0 -47 20t-19 48zM285 455h469v675z" />
<glyph unicode="5" d="M164 164q0 29 21 49t51 20q14 0 29 -9t38 -27t41 -29q95 -57 236 -57q143 0 234 91.5t91 235.5q0 147 -81.5 236.5t-215.5 89.5q-105 0 -200 -68q-24 -17 -56.5 -44t-49.5 -37.5t-34 -10.5q-30 0 -46.5 17.5t-16.5 46.5q0 9 4 67l43 592q2 28 21.5 48t48.5 20h632 q30 0 50 -21t20 -51t-20 -50t-50 -20h-559l-37 -454q118 96 271 96q203 0 318.5 -126t115.5 -329q0 -201 -133.5 -330.5t-349.5 -129.5q-198 0 -326 77q-90 56 -90 107z" />
<glyph unicode="6" d="M139 633q0 67 5 131.5t20.5 144.5t40 148.5t67.5 135.5t98.5 114.5t137 76.5t180.5 29q162 0 260 -43q109 -43 109 -98q0 -31 -21 -52.5t-53 -21.5q-18 0 -63.5 20t-73.5 29q-80 25 -160 25q-131 0 -214 -80.5t-124 -210.5q-39 -124 -43 -301q117 182 342 182 q200 0 318 -116t118 -318q0 -198 -126 -323t-328 -125q-242 0 -366 172.5t-124 480.5zM301 518q12 -193 95 -296t233 -103q135 0 216 86t81 219q0 141 -78.5 221t-216.5 80q-108 0 -192 -56t-138 -151z" />
<glyph unicode="7" d="M150 1087v238q0 28 20.5 49t50.5 21h791q29 0 49 -21t20 -51q0 -14 -18 -59l-576 -1235q-12 -30 -43 -42t-61 -1q-34 14 -47 45t2 63l469 981q32 71 96 178h-610v-166q0 -29 -21 -49t-51 -20q-31 0 -51 20t-20 49z" />
<glyph unicode="8" d="M123 356q0 63 23 118.5t55.5 93.5t82.5 73t89.5 55t91.5 41q-62 29 -104 54t-89 65t-71.5 93.5t-24.5 119.5q0 157 116.5 250.5t321.5 93.5q204 0 322.5 -94t118.5 -250q0 -53 -18 -99.5t-44.5 -79t-68 -63.5t-76.5 -49.5t-82 -40.5q61 -28 100 -48.5t90 -56.5t80.5 -72 t50.5 -88.5t21 -113.5q0 -177 -131 -277.5t-361 -100.5q-231 0 -362 99.5t-131 276.5zM285 371q0 -119 83.5 -189.5t247.5 -70.5q163 0 247.5 69.5t84.5 188.5q0 57 -27 103.5t-79.5 82t-106 60.5t-129.5 51q-70 -24 -123.5 -50t-100.5 -61.5t-72 -82t-25 -101.5zM334 1069 q0 -51 25.5 -93.5t73 -74.5t90 -52t100.5 -42q58 23 102.5 46.5t85.5 55t63.5 71t22.5 85.5q0 104 -73 163.5t-208 59.5q-138 0 -210 -57.5t-72 -161.5z" />
<glyph unicode="9" d="M141 965q0 198 126.5 323t328.5 125q242 0 366.5 -172.5t124.5 -480.5q0 -66 -5.5 -131.5t-21 -145t-40 -148t-67.5 -135.5t-99 -114.5t-137.5 -76.5t-179.5 -29q-163 0 -261 40q-108 43 -108 101q0 31 21.5 52.5t52.5 21.5q19 0 64 -20.5t75 -29.5q74 -24 160 -24 q241 0 336 291q39 124 43 301q-118 -183 -342 -183q-200 0 -318.5 116t-118.5 319zM301 969q0 -141 77.5 -221t215.5 -80q110 0 193.5 55t136.5 151q-12 193 -95 296.5t-233 103.5q-134 0 -214.5 -86.5t-80.5 -218.5z" />
<glyph unicode=":" horiz-adv-x="393" d="M104 76q0 39 27.5 65.5t67.5 26.5q39 0 66.5 -26.5t27.5 -65.5t-27.5 -66.5t-66.5 -27.5q-40 0 -67.5 27t-27.5 67zM104 850q0 38 27.5 65t67.5 27q38 0 66 -27t28 -65q0 -39 -27.5 -66.5t-66.5 -27.5q-40 0 -67.5 27t-27.5 67z" />
<glyph unicode=";" horiz-adv-x="393" d="M104 78q0 38 26 64t73 26q55 0 84.5 -36.5t29.5 -100.5q0 -89 -64 -154t-114 -65q-12 0 -20 8t-8 20q0 13 10.5 26.5t23 23t23 26.5t10.5 37q0 14 -7.5 25t-18.5 18.5t-22 17t-18.5 25.5t-7.5 39zM111 850q0 38 28 65t68 27q38 0 65 -27t27 -65q0 -40 -27 -67t-65 -27 q-40 0 -68 27t-28 67z" />
<glyph unicode="&#x3c;" horiz-adv-x="1257" d="M88 723q0 83 92 119l846 368q26 11 43 11q32 0 55 -23t23 -57q0 -49 -51 -72l-820 -346l820 -346q51 -23 51 -72q0 -34 -23 -57t-55 -23q-17 0 -43 11l-846 368q-92 36 -92 119z" />
<glyph unicode="=" horiz-adv-x="1146" d="M72 477q0 28 20 49t49 21h867q27 0 47 -21t20 -49q0 -30 -19.5 -50.5t-47.5 -20.5h-867q-29 0 -49 20t-20 51zM72 969q0 28 20 48.5t49 20.5h867q28 0 47.5 -20.5t19.5 -48.5q0 -31 -19.5 -51.5t-47.5 -20.5h-867q-29 0 -49 20.5t-20 51.5z" />
<glyph unicode="&#x3e;" horiz-adv-x="1261" d="M111 305q0 49 51 72l819 346l-819 346q-51 23 -51 72q0 34 22.5 57t54.5 23q17 0 43 -11l846 -368q92 -40 92 -119t-92 -119l-846 -368q-26 -11 -43 -11q-32 0 -54.5 22.5t-22.5 57.5z" />
<glyph unicode="?" horiz-adv-x="1003" d="M51 1188q0 32 26 59.5t79 61.5q158 104 350 104q184 0 307 -110.5t123 -286.5q0 -112 -52 -185.5t-159 -148.5q-39 -28 -62 -47t-52.5 -48.5t-46.5 -63.5t-23 -74q-9 -54 -25 -75.5t-51 -21.5q-31 0 -51.5 22t-20.5 56q0 69 49 158q19 35 49.5 69.5t50.5 52.5t71 59 t67 54q102 85 102 193q0 118 -80.5 189t-205.5 71q-79 0 -136 -20t-120 -62q-18 -13 -45.5 -35.5t-42.5 -30.5t-35 -8q-28 0 -47 20t-19 48zM369 76q0 39 28 65.5t68 26.5q39 0 65.5 -26.5t26.5 -65.5q0 -40 -27 -67t-65 -27q-40 0 -68 27t-28 67z" />
<glyph unicode="@" horiz-adv-x="1640" d="M100 694q0 145 61 278t163 230t243 155t295 58q191 0 344 -72.5t243.5 -212t90.5 -323.5q0 -144 -44 -264.5t-127 -193.5t-189 -73q-114 0 -123 107q-91 -111 -269 -111q-112 0 -192 56q-98 63 -98 182q0 159 209 223q122 38 337 47q0 134 -63 197q-62 59 -168 59 q-92 0 -158 -37q-17 -9 -33.5 -20.5t-26.5 -17t-22 -5.5q-17 0 -29 11t-12 28q0 29 76 70q89 49 205 49q134 0 221 -78q94 -87 94 -256v-352q0 -82 68 -82q107 0 188.5 124.5t81.5 332.5q0 166 -79 290.5t-215 188.5t-310 64q-139 0 -266.5 -52.5t-219.5 -140.5t-147 -209 t-55 -252q0 -197 90 -348t247.5 -232t358.5 -81q241 0 437 75q15 6 33 14.5t28 12.5t18 4q15 0 26 -11t11 -26q0 -20 -19.5 -31.5t-70.5 -29.5q-210 -78 -463 -78q-221 0 -395.5 90t-274.5 257.5t-100 385.5zM580 506q0 -73 61 -121q55 -43 150 -43q180 0 253 125v244 q-214 -10 -323 -47q-141 -50 -141 -158z" />
<glyph unicode="A" horiz-adv-x="1415" d="M150 59v754q0 127 43 244t129 205q151 151 385 151q239 0 387 -151q85 -88 128.5 -205.5t43.5 -243.5v-754q0 -32 -24.5 -55.5t-57.5 -23.5q-35 0 -58.5 23t-23.5 56v426h-789v-426q0 -32 -24 -55.5t-58 -23.5t-57.5 23.5t-23.5 55.5zM313 631h789v178q0 207 -113 332 q-111 121 -282 121q-175 0 -283 -121q-111 -120 -111 -332v-178z" />
<glyph unicode="B" horiz-adv-x="1296" d="M154 80v1235q0 33 23.5 56.5t58.5 23.5h421q83 0 157.5 -21.5t135 -64t96 -112t35.5 -157.5q0 -114 -48.5 -191.5t-133.5 -115.5v-4q145 -29 221 -123t76 -233q0 -94 -38.5 -167.5t-104 -117t-146.5 -66t-172 -22.5h-499q-35 0 -58.5 23.5t-23.5 56.5zM317 135h385 q69 0 125 13.5t103 42t73 79.5t27 121q0 109 -76 180.5t-221 71.5h-416v-508zM317 776h342q112 0 185.5 60t73.5 186q0 116 -81.5 178t-203.5 62h-316v-486z" />
<glyph unicode="C" horiz-adv-x="1349" d="M96 698q0 144 59 277t157.5 228.5t233 152.5t279.5 57q194 0 342 -67q99 -42 99 -103q0 -33 -21.5 -54.5t-54.5 -21.5q-14 0 -33.5 10t-52 27t-66.5 29q-97 33 -215 33q-149 0 -277.5 -76.5t-204 -207.5t-75.5 -284q0 -166 76.5 -297.5t203.5 -202.5t277 -71 q114 0 217 35q37 13 71.5 30.5t54.5 27t34 9.5q31 0 53.5 -21.5t22.5 -53.5q0 -33 -25.5 -56.5t-74.5 -46.5q-152 -71 -351 -71q-201 0 -366 87.5t-264 253t-99 377.5z" />
<glyph unicode="D" horiz-adv-x="1511" d="M154 80v1235q0 33 23.5 56.5t58.5 23.5h436q385 0 581 -219q162 -180 162 -480q0 -367 -260 -555q-194 -141 -514 -141h-405q-35 0 -58.5 23.5t-23.5 56.5zM317 139h308q249 0 407 111q215 153 215 446q0 238 -131 385q-158 174 -471 174h-328v-1116z" />
<glyph unicode="E" horiz-adv-x="1232" d="M154 80v1235q0 33 23.5 56.5t58.5 23.5h862q29 0 49 -21t20 -51q0 -31 -20 -52.5t-49 -21.5h-781v-477h674q30 0 51 -22t21 -52t-20.5 -50.5t-51.5 -20.5h-674v-482h781q29 0 49 -21t20 -52q0 -30 -20 -51t-49 -21h-862q-35 0 -58.5 23.5t-23.5 56.5z" />
<glyph unicode="F" horiz-adv-x="1146" d="M154 59v1256q0 32 24 56t58 24h798q29 0 50.5 -21.5t21.5 -50.5q0 -31 -21.5 -52.5t-50.5 -21.5h-717v-477h617q29 0 50.5 -22.5t21.5 -51.5t-21.5 -50t-50.5 -21h-617v-568q0 -32 -23.5 -55.5t-57.5 -23.5t-58 23.5t-24 55.5z" />
<glyph unicode="G" horiz-adv-x="1519" d="M96 698q0 193 98 358t265.5 261t363.5 96q181 0 342 -67q101 -43 101 -103q0 -33 -22.5 -54.5t-53.5 -21.5q-18 0 -37.5 9t-56 27t-76.5 32q-91 31 -199 31q-150 0 -278 -77t-202.5 -208t-74.5 -283q0 -171 74.5 -302.5t200 -201t280.5 -69.5q114 0 214.5 34t174.5 89 v299h-376q-29 0 -49.5 21.5t-20.5 52.5q0 29 20.5 50t49.5 21h460q37 0 56.5 -22.5t19.5 -57.5v-553q0 -34 -22 -56.5t-58 -22.5t-58 22.5t-22 56.5v33q-167 -112 -395 -112q-150 0 -280 48t-228 137t-154.5 226.5t-56.5 306.5z" />
<glyph unicode="H" horiz-adv-x="1470" d="M154 59v1274q0 32 24 56t58 24t57.5 -23.5t23.5 -56.5v-561h838v561q0 33 23.5 56.5t58.5 23.5q34 0 58 -24t24 -56v-1274q0 -32 -24.5 -55.5t-57.5 -23.5q-35 0 -58.5 23t-23.5 56v568h-838v-568q0 -32 -23.5 -55.5t-57.5 -23.5t-58 23.5t-24 55.5z" />
<glyph unicode="I" horiz-adv-x="471" d="M154 59v1274q0 32 24 56t58 24t57.5 -23.5t23.5 -56.5v-1274q0 -32 -23.5 -55.5t-57.5 -23.5t-58 23.5t-24 55.5z" />
<glyph unicode="J" horiz-adv-x="1050" d="M20 168q0 32 22 54t54 22q27 0 56 -25q105 -94 235 -94q160 0 256 96t96 293v819q0 32 24 56t58 24q35 0 58.5 -23.5t23.5 -56.5v-821q0 -267 -149 -403q-144 -129 -365 -129q-88 0 -176.5 30.5t-157.5 87.5q-35 32 -35 70z" />
<glyph unicode="K" horiz-adv-x="1214" d="M154 59v1274q0 32 24 56t58 24t57.5 -23.5t23.5 -56.5v-608l656 661q27 27 61 27q31 0 53.5 -23.5t22.5 -56.5q0 -30 -23 -53l-503 -496l563 -678q14 -20 14 -45q0 -33 -23 -57t-57 -24q-43 0 -75 43l-533 647l-156 -152v-459q0 -32 -23.5 -55.5t-57.5 -23.5t-58 23.5 t-24 55.5z" />
<glyph unicode="L" horiz-adv-x="1091" d="M154 80v1253q0 33 23.5 56.5t58.5 23.5q34 0 57.5 -23.5t23.5 -56.5v-1188h668q29 0 49.5 -21t20.5 -52q0 -29 -20.5 -50.5t-49.5 -21.5h-749q-35 0 -58.5 23.5t-23.5 56.5z" />
<glyph unicode="M" horiz-adv-x="1703" d="M154 57v1256q0 42 27.5 71t72.5 29q59 0 90 -53l508 -838l508 838q31 53 90 53q45 0 72.5 -29t27.5 -71v-1256q0 -33 -21 -55t-56 -22q-36 0 -58 22t-22 55v1053l-461 -745q-31 -52 -80 -52t-80 52l-461 745v-1053q0 -33 -21.5 -55t-56.5 -22q-36 0 -57.5 22t-21.5 55z " />
<glyph unicode="N" horiz-adv-x="1515" d="M154 53v1272q0 36 27 62t65 26q46 0 82 -45l876 -1102v1071q0 31 23.5 53.5t56.5 22.5q32 0 55 -22.5t23 -53.5v-1269q0 -37 -27 -62.5t-67 -25.5q-44 0 -82 45l-875 1101v-1073q0 -31 -23 -52t-57 -21q-33 0 -55 21t-22 52z" />
<glyph unicode="O" horiz-adv-x="1650" d="M96 694q0 149 58 283t156.5 229t233 151t281.5 56t281.5 -56t233 -151t156.5 -229t58 -283q0 -199 -98.5 -363.5t-266 -257.5t-364.5 -93q-147 0 -281.5 55.5t-233 150t-156.5 227.5t-58 281zM270 694q0 -154 73 -283t200.5 -204.5t281.5 -75.5t282 76t201.5 205 t73.5 282t-73.5 283t-202 206.5t-281.5 76.5t-281 -76.5t-201 -206.5t-73 -283z" />
<glyph unicode="P" horiz-adv-x="1282" d="M154 59v1256q0 32 24 56t58 24h485q193 0 321 -99q164 -131 164 -360q0 -117 -46.5 -213.5t-129.5 -157.5q-120 -88 -330 -88h-383v-418q0 -32 -23.5 -55.5t-57.5 -23.5t-58 23.5t-24 55.5zM317 621h357q156 0 239 55q60 41 93.5 108t33.5 152q0 171 -118 252 q-84 63 -226 63h-379v-630z" />
<glyph unicode="Q" horiz-adv-x="1650" d="M96 694q0 149 58 283t156.5 229t233 151t281.5 56t281 -56t232.5 -151t157 -229t58.5 -283q0 -134 -47 -255.5t-128.5 -213t-193.5 -153.5t-239 -82q2 -3 5.5 -6t8.5 -6t9.5 -5.5t12 -5.5l12.5 -5t14 -4.5t14.5 -4t15 -4.5t13.5 -4q148 -46 424 -119q84 -23 102 -35 q29 -19 29 -55q0 -33 -24.5 -52.5t-70.5 -19.5q-19 0 -44.5 4t-61.5 13t-69.5 18.5t-84 26t-88 29t-100.5 35t-101.5 36t-109.5 39.5t-109 39q-47 15 -47 57q0 17 6 29q-127 20 -238.5 82t-193 153.5t-128 213t-46.5 255.5zM268 694q0 -153 73.5 -282.5t201.5 -205 t282 -75.5t281.5 75.5t200.5 204.5t73 283q0 153 -73 283t-201 206.5t-281 76.5t-281.5 -76.5t-202 -206.5t-73.5 -283z" />
<glyph unicode="R" horiz-adv-x="1331" d="M154 59v1256q0 33 23.5 56.5t58.5 23.5h489q221 0 340 -80q166 -111 166 -346q0 -213 -164 -334q-84 -62 -201 -82l342 -436q23 -26 23 -56q0 -33 -24.5 -57t-59.5 -24q-44 0 -70 38l-399 527h-361v-486q0 -32 -23.5 -55.5t-57.5 -23.5q-35 0 -58.5 23t-23.5 56zM317 682 h385q158 0 240 47q121 72 121 240t-117 237q-81 49 -239 49h-390v-573z" />
<glyph unicode="S" horiz-adv-x="1138" d="M88 172q0 35 23 57.5t57 22.5q15 0 31.5 -9.5t48.5 -29.5t69 -37q112 -55 246 -55q159 0 239.5 71.5t80.5 186.5q0 137 -176 213q-50 22 -187.5 62.5t-218.5 80.5q-207 101 -207 307q0 174 128 272.5t366 98.5q185 0 319 -59q94 -38 94 -97q0 -33 -21 -54t-56 -21 q-16 0 -35.5 8t-49.5 22t-55 23q-105 37 -204 37q-157 0 -235.5 -57.5t-78.5 -167.5q0 -73 51.5 -122t149.5 -85q50 -18 133 -41t152.5 -46.5t126.5 -56.5q180 -107 180 -303q0 -193 -136 -303t-360 -110q-103 0 -212 28.5t-185 69.5q-78 44 -78 94z" />
<glyph unicode="T" horiz-adv-x="1155" d="M0 1323q0 30 21 51t51 21h1013q29 0 49.5 -21.5t20.5 -50.5q0 -31 -20.5 -52.5t-49.5 -21.5h-426v-1190q0 -32 -23.5 -55.5t-57.5 -23.5t-58 23.5t-24 55.5v1190h-424q-31 0 -51.5 21.5t-20.5 52.5z" />
<glyph unicode="U" horiz-adv-x="1478" d="M150 551v782q0 33 24 56.5t57 23.5q35 0 58.5 -23.5t23.5 -56.5v-762q0 -202 105 -319q113 -125 319 -125q211 0 324 125q104 116 104 319v762q0 33 23.5 56.5t58.5 23.5q34 0 58 -24t24 -56v-782q0 -248 -135 -395q-156 -176 -455 -176q-298 0 -454 176 q-135 147 -135 395z" />
<glyph unicode="V" horiz-adv-x="1265" d="M14 1331q0 35 23.5 58.5t60.5 23.5q28 0 49.5 -15.5t30.5 -41.5l453 -1159l454 1159q23 57 82 57q35 0 59.5 -22t24.5 -58q0 -11 -8 -35l-498 -1235q-32 -83 -116 -83q-83 0 -115 83l-491 1233q-9 27 -9 35z" />
<glyph unicode="W" horiz-adv-x="2197" d="M150 508v825q0 33 24 56.5t57 23.5q35 0 58.5 -23.5t23.5 -56.5v-825q0 -179 86 -275q94 -102 269 -102q138 0 225 84q123 113 123 326v792q0 32 24 56t58 24q35 0 58.5 -23.5t23.5 -56.5v-792q0 -211 125 -326q87 -84 225 -84q175 0 266 102q88 94 88 275v825 q0 33 23.5 56.5t58.5 23.5q34 0 58 -24t24 -56v-825q0 -244 -127 -381q-70 -75 -171.5 -111t-215.5 -36q-147 0 -258 71q-118 72 -178 223q-56 -150 -176 -223q-111 -71 -258 -71q-249 0 -388 147q-126 136 -126 381z" />
<glyph unicode="X" horiz-adv-x="1269" d="M18 66q0 29 23 55l491 575l-485 576q-22 29 -22 55q0 35 28.5 60.5t65.5 25.5q43 0 76 -41l442 -545l440 545q35 41 76 41q35 0 64.5 -25.5t29.5 -60.5q0 -28 -24 -55l-482 -574l490 -577q20 -23 20 -55q0 -35 -27.5 -60.5t-64.5 -25.5q-44 0 -76 40l-446 549l-449 -549 q-32 -40 -77 -40q-36 0 -64.5 24.5t-28.5 61.5z" />
<glyph unicode="Y" horiz-adv-x="1169" d="M8 1335q0 34 23 56t57 22q44 0 72 -41l424 -596l426 596q28 41 71 41q34 0 57 -23t23 -55q0 -28 -16 -57l-479 -666v-553q0 -32 -24 -55.5t-58 -23.5t-58 23.5t-24 55.5v553l-475 668q-19 30 -19 55z" />
<glyph unicode="Z" horiz-adv-x="1134" d="M16 1323q0 28 20.5 50t49.5 22h911q30 0 51 -22t21 -50q0 -27 -14 -47l-787 -1131h772q29 0 50.5 -22t21.5 -51t-21.5 -50.5t-50.5 -21.5h-921q-29 0 -50.5 21.5t-21.5 50.5q0 24 19 51l784 1126h-764q-29 0 -49.5 21.5t-20.5 52.5z" />
<glyph unicode="[" horiz-adv-x="671" d="M147 -377v1694q0 32 24 55t56 23h322q29 0 49 -21t20 -49q0 -29 -20 -49.5t-49 -20.5h-244v-1570h244q29 0 49 -21t20 -51q0 -28 -20 -47t-49 -19h-322q-33 0 -56.5 22t-23.5 54z" />
<glyph unicode="\" horiz-adv-x="565" d="M45 1317q-8 30 7 58.5t44 35.5q31 9 58 -6.5t36 -46.5l359 -1282q8 -29 -7 -56t-44 -36q-30 -8 -57.5 6.5t-34.5 44.5z" />
<glyph unicode="]" horiz-adv-x="669" d="M53 -387q0 29 20 50.5t48 21.5h244v1570h-244q-28 0 -48 20.5t-20 49.5q0 28 20 49t48 21h323q32 0 55 -23t23 -55v-1694q0 -32 -23 -54t-55 -22h-323q-28 0 -48 19t-20 47z" />
<glyph unicode="^" horiz-adv-x="1019" d="M90 889q0 17 14 41l338 526q24 39 68 39t68 -39l337 -526q13 -23 13 -41q0 -28 -19 -47t-47 -19q-35 0 -57 31l-295 467l-297 -467q-22 -31 -55 -31q-28 0 -48 19t-20 47z" />
<glyph unicode="_" horiz-adv-x="991" d="M-59 -225q0 24 17.5 41.5t41.5 17.5h991q24 0 41 -17.5t17 -41.5q0 -25 -16.5 -42.5t-41.5 -17.5h-991q-25 0 -42 17.5t-17 42.5z" />
<glyph unicode="`" horiz-adv-x="854" d="M283 1520q0 23 18 40t43 17q35 0 57 -43l158 -283q12 -21 12 -39q0 -21 -15.5 -35t-37.5 -14q-32 0 -53 37l-166 275q-16 27 -16 45z" />
<glyph unicode="a" horiz-adv-x="974" d="M88 252q0 170 188 242q55 22 136.5 36.5t129 19t148.5 11.5v29q0 117 -47 172q-51 59 -166 59q-91 0 -184 -35q-20 -8 -42.5 -19t-36 -16.5t-24.5 -5.5q-25 0 -41 18t-16 42q0 45 100 88q114 49 261 49q184 0 270 -98q78 -91 78 -252v-541q0 -29 -22.5 -50t-53.5 -21 q-30 0 -52.5 19t-23.5 46q-124 -65 -270 -65q-86 0 -159 28t-123 91.5t-50 152.5zM229 260q0 -80 69 -121t165 -41q110 0 227 60v288q-210 -9 -305 -36q-156 -41 -156 -150z" />
<glyph unicode="b" horiz-adv-x="1085" d="M147 86v1253q0 31 22.5 52.5t53.5 21.5t53.5 -21.5t22.5 -52.5v-454q111 57 254 57q199 0 321 -131q119 -129 119 -350q0 -191 -106 -316q-72 -83 -185.5 -124t-252.5 -41q-128 0 -230 16q-72 15 -72 90zM299 113q118 -11 162 -11q93 0 173.5 30.5t131.5 94.5 q74 90 74 234q0 174 -90 264q-87 90 -226 90q-122 0 -225 -57v-645z" />
<glyph unicode="c" horiz-adv-x="964" d="M92 463q0 181 105 305q70 84 173 129t222 45q129 0 227 -49q70 -34 70 -80q0 -25 -18 -42t-44 -17q-8 0 -16 2t-14 4.5t-18.5 8.5t-22.5 11q-79 35 -164 35q-163 0 -266 -119q-82 -95 -82 -233q0 -160 94 -260q96 -99 256 -99q99 0 168 29q15 6 29.5 14t23 11.5t19.5 3.5 q24 0 41.5 -18.5t17.5 -43.5q0 -27 -20.5 -45.5t-65.5 -36.5q-96 -38 -217 -38q-238 0 -371 139q-127 133 -127 344z" />
<glyph unicode="d" horiz-adv-x="1069" d="M92 459q0 184 94 309q61 82 157 129t218 47q100 0 209 -37v432q0 31 22 52.5t54 21.5q31 0 52.5 -21.5t21.5 -52.5v-1259q0 -38 -24 -59t-60 -21h-213q-269 0 -410 141q-121 121 -121 318zM246 461q0 -145 82 -230q103 -106 309 -106h133v653q-101 37 -201 37 q-84 0 -151.5 -34.5t-110.5 -98.5q-61 -88 -61 -221z" />
<glyph unicode="e" horiz-adv-x="1073" d="M92 473q0 202 123 334q125 135 338 135q202 0 321 -129q113 -119 113 -301q0 -38 -21 -65t-59 -27h-659q12 -126 80 -205q95 -113 258 -113q126 0 221 50q10 5 25.5 13.5t22.5 12.5t17 7t19 3q24 0 40.5 -18t16.5 -43q0 -22 -17.5 -39.5t-58.5 -40.5q-127 -67 -292 -67 q-232 0 -367 151q-121 130 -121 342zM248 528h594q-6 127 -76 203q-83 90 -213 90q-146 0 -231 -98q-64 -73 -74 -195z" />
<glyph unicode="f" horiz-adv-x="706" d="M37 866q0 24 17.5 41t41.5 17h99v166q0 323 276 323q113 0 195 -39t82 -98q0 -24 -17 -41.5t-41 -17.5q-20 0 -46.5 15.5t-63 30.5t-80.5 15q-86 0 -121 -47.5t-35 -151.5v-155h260q23 0 40.5 -17.5t17.5 -40.5q0 -26 -17 -43.5t-41 -17.5h-260v-754q0 -29 -21.5 -50 t-52.5 -21t-53 21t-22 50v754h-99q-25 0 -42 17.5t-17 43.5z" />
<glyph unicode="g" horiz-adv-x="1087" d="M92 465q0 216 119 350q111 127 299 127q152 0 278 -90v18q0 31 22 51.5t54 20.5q31 0 52.5 -20.5t21.5 -51.5v-903q0 -221 -115 -336q-109 -106 -311 -106q-145 0 -258 61q-102 54 -102 113q0 28 17.5 48t45.5 20q13 0 24.5 -4.5t19 -10.5t24.5 -20t32 -25 q84 -59 195 -59q144 0 213 78q65 74 65 219v125q-109 -88 -276 -88q-185 0 -299 127q-121 136 -121 356zM244 465q0 -169 78 -266q77 -93 204 -93q145 0 262 99v508q-28 23 -46.5 36t-53 32t-74.5 28.5t-86 9.5q-130 0 -204 -94q-80 -99 -80 -260z" />
<glyph unicode="h" horiz-adv-x="1134" d="M147 51v1288q0 31 22.5 52.5t53.5 21.5t53.5 -21.5t22.5 -52.5v-571q46 87 131 130.5t193 43.5q171 0 268 -84q110 -96 110 -309v-498q0 -29 -22 -50t-53 -21t-52.5 21t-21.5 50v465q0 166 -76 236q-62 59 -182 59q-166 0 -242 -141q-53 -101 -53 -244v-375 q0 -29 -22.5 -50t-53.5 -21t-53.5 21t-22.5 50z" />
<glyph unicode="i" horiz-adv-x="446" d="M131 1366q0 37 26.5 63.5t63.5 26.5t63.5 -26.5t26.5 -63.5t-26.5 -63.5t-63.5 -26.5t-63.5 26.5t-26.5 63.5zM147 51v819q0 30 22.5 51t53.5 21t53.5 -21t22.5 -51v-819q0 -29 -22.5 -50t-53.5 -21t-53.5 21t-22.5 50z" />
<glyph unicode="j" horiz-adv-x="446" d="M-12 -412q0 24 15 37t44.5 35t52.5 55q27 37 37 100.5t10 168.5v886q0 31 22.5 52.5t53.5 21.5t53.5 -21.5t22.5 -52.5v-931q0 -214 -80 -326q-29 -40 -70.5 -64t-82.5 -24q-34 0 -56 16t-22 47zM131 1366q0 37 26.5 63.5t63.5 26.5t63.5 -26.5t26.5 -63.5t-26.5 -63.5 t-63.5 -26.5t-63.5 26.5t-26.5 63.5z" />
<glyph unicode="k" horiz-adv-x="954" d="M147 51v1286q0 31 22.5 52.5t53.5 21.5t53.5 -21.5t22.5 -52.5v-858l473 443q23 20 47 20q31 0 50.5 -21t19.5 -47q0 -31 -21 -49l-331 -303l358 -420q20 -24 20 -51q0 -30 -21.5 -50.5t-51.5 -20.5q-35 0 -62 34l-348 416l-133 -123v-256q0 -29 -22.5 -50t-53.5 -21 t-53.5 21t-22.5 50z" />
<glyph unicode="l" horiz-adv-x="446" d="M147 51v1288q0 31 22.5 52.5t53.5 21.5t53.5 -21.5t22.5 -52.5v-1288q0 -29 -22.5 -50t-53.5 -21t-53.5 21t-22.5 50z" />
<glyph unicode="m" horiz-adv-x="1673" d="M147 51v817q0 31 22.5 52.5t53.5 21.5t53.5 -21.5t22.5 -52.5v-53q94 127 270 127q128 0 209 -61q70 -51 99 -131q43 92 122 143q77 49 191 49q162 0 252 -90q98 -95 98 -283v-518q0 -30 -22.5 -50.5t-53.5 -20.5t-53 20.5t-22 50.5v481q0 148 -62 216q-57 63 -168 63 q-126 0 -186 -98q-53 -90 -53 -254v-408q0 -30 -22.5 -50.5t-53.5 -20.5t-53.5 20.5t-22.5 50.5v481q0 149 -61 216q-57 63 -168 63q-127 0 -187 -98q-53 -88 -53 -234v-428q0 -30 -22.5 -50.5t-53.5 -20.5t-53.5 20.5t-22.5 50.5z" />
<glyph unicode="n" horiz-adv-x="1132" d="M147 51v817q0 31 22.5 52.5t53.5 21.5t53.5 -21.5t22.5 -52.5v-100q46 87 131 130.5t193 43.5q171 0 268 -84q110 -96 110 -309v-498q0 -29 -22 -50t-53 -21t-52.5 21t-21.5 50v465q0 166 -76 236q-62 59 -182 59q-166 0 -242 -141q-53 -101 -53 -244v-375 q0 -29 -22.5 -50t-53.5 -21t-53.5 21t-22.5 50z" />
<glyph unicode="o" horiz-adv-x="1163" d="M92 461q0 210 137 344q67 65 158.5 101t194.5 36q212 0 352 -137q139 -136 139 -344q0 -101 -36.5 -189.5t-102.5 -152.5q-139 -139 -352 -139q-104 0 -195.5 36.5t-157.5 102.5q-137 134 -137 342zM240 461q0 -148 92 -250q98 -109 250 -109q154 0 252 109q90 99 90 250 t-90 250q-97 108 -252 108q-153 0 -250 -108q-92 -102 -92 -250z" />
<glyph unicode="p" horiz-adv-x="1075" d="M147 -408v1233q0 85 91 101q94 16 206 16q256 0 398 -133q141 -128 141 -346q0 -213 -115 -338q-69 -73 -163 -109t-191 -36q-130 0 -215 40v-428q0 -30 -22.5 -50.5t-53.5 -20.5t-53.5 20.5t-22.5 50.5zM299 145q85 -43 201 -43q146 0 241 95q93 93 93 266 q0 159 -99 258q-100 100 -276 100q-89 0 -160 -12v-664z" />
<glyph unicode="q" horiz-adv-x="1071" d="M92 459q0 193 109 321q143 162 426 162q131 0 217 -18q80 -16 80 -103v-1231q0 -31 -22 -52t-54 -21q-30 0 -52 21.5t-22 51.5v523q-93 -133 -268 -133t-289 114q-125 128 -125 365zM240 463q0 -177 84 -273q75 -88 202 -88q68 0 117.5 26.5t77.5 75t40.5 107t12.5 131.5 v365q-105 14 -158 14q-206 0 -307 -129q-69 -87 -69 -229z" />
<glyph unicode="r" horiz-adv-x="772" d="M147 51v819q0 30 22.5 51t53.5 21t53.5 -21t22.5 -51v-77q71 149 260 149q103 0 170 -43q59 -38 59 -84q0 -31 -19 -50.5t-48 -19.5q-22 0 -48 15t-60.5 30t-77.5 15q-105 0 -166 -82q-70 -96 -70 -270v-402q0 -29 -22.5 -50t-53.5 -21t-53.5 21t-22.5 50z" />
<glyph unicode="s" horiz-adv-x="825" d="M74 123q0 25 16.5 42t42.5 17q29 0 82 -30q88 -52 191 -52q192 0 192 140q0 53 -32.5 84.5t-98.5 60.5q-26 12 -104.5 39.5t-118.5 46.5q-152 71 -152 223q0 118 88 184t250 66q125 0 213 -31q86 -29 86 -82q0 -25 -16 -41t-41 -16q-26 0 -96.5 22.5t-139.5 22.5 q-188 0 -188 -125q0 -46 28.5 -73.5t83.5 -51.5q31 -14 111 -41.5t113 -44.5q170 -80 170 -231q0 -126 -92.5 -199t-249.5 -73q-150 0 -260 51q-34 16 -56 40t-22 52z" />
<glyph unicode="t" horiz-adv-x="722" d="M29 866q0 24 17.5 41t41.5 17h88v153q0 31 22 52.5t54 21.5q30 0 52 -22t22 -52v-153h282q25 0 42.5 -17.5t17.5 -40.5q0 -25 -17.5 -43t-42.5 -18h-282v-496q0 -101 38 -149.5t130 -48.5q44 0 82.5 16.5t65.5 33.5t42 17q26 0 40.5 -16.5t14.5 -42.5q0 -58 -98 -103 q-80 -36 -174 -36q-153 0 -222 85t-69 230v510h-88q-25 0 -42 18t-17 43z" />
<glyph unicode="u" horiz-adv-x="1118" d="M133 391v479q0 31 22 51.5t54 20.5q31 0 52.5 -20.5t21.5 -51.5v-467q0 -111 39 -180q28 -50 88.5 -80t148.5 -30t149 30t89 80q37 65 37 180v467q0 30 22 51t53 21t53.5 -21t22.5 -51v-479q0 -158 -70 -262q-47 -72 -139 -110.5t-217 -38.5q-256 0 -358 149 q-68 106 -68 262z" />
<glyph unicode="v" horiz-adv-x="901" d="M14 870q0 33 22 52.5t60 19.5q50 0 72 -63l281 -729h8l280 733q21 59 74 59q36 0 56 -19t20 -49q0 -23 -19 -67l-305 -733q-20 -47 -47 -70.5t-70 -23.5q-45 0 -70.5 22.5t-45.5 71.5l-299 735q-17 43 -17 61z" />
<glyph unicode="w" horiz-adv-x="1630" d="M133 391v479q0 31 22 52.5t54 21.5q31 0 52.5 -21.5t21.5 -52.5v-471q0 -117 34 -184q51 -100 191 -100q146 0 199 110q32 63 32 178v467q0 31 22.5 52.5t53.5 21.5t53.5 -21.5t22.5 -52.5v-467q0 -112 31 -178q50 -110 200 -110q136 0 191 98q35 69 35 186v471 q0 31 21 52.5t52 21.5t53.5 -21.5t22.5 -52.5v-479q0 -161 -55 -262q-41 -72 -120 -110.5t-187 -38.5q-176 0 -265 110q-39 49 -55 84q-19 -41 -55 -84q-92 -110 -262 -110q-109 0 -188.5 39t-121.5 112q-55 96 -55 260z" />
<glyph unicode="x" horiz-adv-x="917" d="M14 55q0 6 1 11.5t2 9.5t4.5 9.5t5 8.5t7 9t7 8t8 9t8.5 9l303 344l-294 334q-2 2 -9.5 11t-9.5 12.5t-6.5 10.5t-6 13.5t-1.5 13.5q0 32 23 54t57 22q43 0 77 -43l269 -321l270 319q35 45 76 45q32 0 54 -21t22 -51q0 -27 -29 -59l-297 -332l317 -362q33 -41 33 -64 q0 -31 -22.5 -53t-57.5 -22q-48 0 -86 51l-280 334l-287 -342q-38 -43 -78 -43q-34 0 -57 21.5t-23 53.5z" />
<glyph unicode="y" horiz-adv-x="942" d="M14 862q0 34 24 58t58 24q32 0 51.5 -16t26.5 -37l315 -754l279 740q26 67 80 67q33 0 56.5 -23.5t23.5 -56.5q0 -22 -17 -65l-333 -848q-165 -424 -461 -424q-32 0 -53 21t-21 51q0 31 21 52t53 21q102 0 170.5 68t128.5 205l-383 860q-19 44 -19 57z" />
<glyph unicode="z" horiz-adv-x="808" d="M10 860q0 26 19 46t45 20h643q28 0 45.5 -16.5t17.5 -41.5q0 -27 -28 -67l-516 -670h503q26 0 45 -19.5t19 -45.5q0 -28 -19 -47t-45 -19h-647q-28 0 -45.5 16t-17.5 43q0 30 26 62l518 674h-499q-26 0 -45 18.5t-19 46.5z" />
<glyph unicode="{" horiz-adv-x="681" d="M39 528q0 72 47 72h8q187 0 187 303q0 45 -4.5 153t-4.5 134q0 147 71 224t228 77q28 0 45 -17.5t17 -41.5q0 -25 -17 -41t-45 -19q-35 -3 -60.5 -11.5t-49 -29.5t-35 -62.5t-10.5 -101.5l6 -280q3 -144 -45.5 -232t-159.5 -127q111 -38 159.5 -125.5t45.5 -232.5 l-6 -279q-1 -61 10 -102t35 -62t49 -29t61 -11q28 -3 45 -19t17 -41t-16.5 -42t-45.5 -17q-157 0 -228 76.5t-71 222.5q0 28 4.5 136t4.5 153q0 303 -187 303h-8q-47 0 -47 69z" />
<glyph unicode="|" horiz-adv-x="458" d="M154 -393v1732q0 31 21.5 52.5t53.5 21.5t55 -21.5t23 -52.5v-1732q0 -31 -23 -52.5t-55 -21.5t-54 21.5t-21 52.5z" />
<glyph unicode="}" horiz-adv-x="681" d="M49 -373q0 25 16 41t44 19q36 3 61 11t48.5 29t35 62t10.5 102l-4 279q-2 146 45.5 233.5t157.5 124.5q-110 39 -157.5 126.5t-45.5 232.5l4 280q1 115 -39 157.5t-116 47.5q-28 3 -44 19t-16 41q0 24 16.5 41.5t43.5 17.5q157 0 228 -77t71 -224q0 -26 -3.5 -134 t-3.5 -153q0 -303 185 -303h10q45 0 45 -72q0 -69 -45 -69h-10q-185 0 -185 -303q0 -45 3.5 -153t3.5 -136q0 -146 -71 -222.5t-228 -76.5q-27 0 -43.5 17t-16.5 42z" />
<glyph unicode="~" horiz-adv-x="1189" d="M111 551q0 74 80.5 140.5t189.5 66.5q68 0 131 -26t103 -57t90 -57t94 -26q48 0 82.5 20.5t51 45t39 45t48.5 20.5q33 0 50 -20t17 -54q0 -73 -79 -139t-191 -66q-50 0 -97 17t-84 41t-72.5 48t-77.5 41t-85 17q-40 0 -70 -13.5t-48 -33t-32.5 -38.5t-32.5 -32.5 t-40 -13.5q-32 0 -49.5 20.5t-17.5 53.5z" />
<glyph unicode="&#xa0;" />
<glyph unicode="&#xa1;" horiz-adv-x="505" d="M150 -309q0 29 2.5 66t6.5 80t5 61l39 585q3 62 51 62t51 -62l41 -585q12 -177 12 -207q0 -180 -104 -180t-104 180zM162 848q0 40 26 67t66 27t67 -27t27 -67t-27 -66t-67 -26t-66 26t-26 66z" />
<glyph unicode="&#xa2;" d="M213 463q0 180 111 311q63 72 151 115.5t189 50.5v127q0 17 13 29t30 12q19 0 31 -12t12 -29v-127q101 -3 192 -49q38 -21 54 -37t16 -39q0 -25 -18.5 -43t-43.5 -18q-9 0 -17 2t-13.5 4.5t-17.5 8.5t-23 11q-80 37 -166 37q-80 0 -151 -32.5t-118 -90.5 q-77 -93 -77 -231q0 -161 94 -258q93 -101 254 -101q94 0 168 31q12 5 24.5 11.5t18 9t13 4.5t17.5 2q25 0 42.5 -18.5t17.5 -43.5q0 -26 -20 -44t-66 -36q-69 -31 -180 -38v-123q0 -17 -13 -29t-30 -12t-30 12t-13 29v123q-195 15 -310 127q-141 131 -141 354z" />
<glyph unicode="&#xa3;" d="M137 72q0 28 20 48.5t48 20.5h71q113 95 113 258q0 78 -35 181h-108q-26 0 -45 19t-19 46q0 26 19 46t45 20h61q-55 156 -55 272q0 82 27 157t80.5 137t142.5 99t203 37q127 0 239 -31q96 -28 96 -82q0 -28 -18.5 -48.5t-44.5 -20.5q-12 0 -27 3.5t-40.5 12t-41.5 13.5 q-70 18 -149 18q-81 0 -143 -26t-97.5 -70t-53 -95.5t-17.5 -107.5q0 -108 59 -268h387q26 0 45 -20t19 -46q0 -27 -19 -46t-45 -19h-340q31 -110 31 -181q0 -151 -107 -258h578q29 0 49 -20.5t20 -48.5q0 -31 -20 -51.5t-49 -20.5h-811q-28 0 -48 21t-20 51z" />
<glyph unicode="&#xa4;" horiz-adv-x="1415" d="M103 259.5q0 26.5 20 45.5l168 168q-113 142 -113 322q0 183 113 321l-168 170q-19 21 -19 47t21 47q20 20 46.5 20.5t45.5 -18.5l168 -172q141 115 324 115q180 0 319 -113l170 168q19 19 46 19t48 -21q20 -21 19.5 -47t-19.5 -45l-168 -168q115 -141 115 -323 q0 -183 -115 -324l168 -164q20 -21 19.5 -47t-19.5 -45q-21 -21 -47.5 -22t-46.5 18l-168 166q-138 -113 -321 -113t-324 115l-168 -168q-19 -20 -45 -19.5t-47 19.5q-22 22 -22 48.5zM283 795q0 -177 124.5 -301.5t301.5 -124.5q175 0 299.5 124.5t124.5 301.5 q0 175 -124.5 299.5t-299.5 124.5q-177 0 -301.5 -124.5t-124.5 -299.5z" />
<glyph unicode="&#xa5;" d="M37 1333q0 34 23 56t57 22q43 0 71 -41l424 -596l426 598q26 39 72 39q34 0 57 -23t23 -55q0 -29 -16 -55l-410 -563h285q23 0 39 -17t16 -41q0 -23 -16 -39t-39 -16h-355v-176h355q23 0 39 -17t16 -40t-16 -39.5t-39 -16.5h-355v-256q0 -32 -24 -56t-58 -24 q-35 0 -58.5 23.5t-23.5 56.5v256h-354q-23 0 -39 16.5t-16 39.5t16 40t39 17h354v176h-354q-23 0 -39 16t-16 39q0 24 16 41t39 17h287l-408 563q-18 29 -18 55z" />
<glyph unicode="&#xa6;" horiz-adv-x="458" d="M154 299q0 31 21.5 52.5t53.5 21.5t54 -21.5t22 -52.5v-692q0 -31 -22.5 -52.5t-53.5 -21.5q-32 0 -53.5 21.5t-21.5 52.5v692zM154 647v692q0 31 21.5 52.5t53.5 21.5t54 -21.5t22 -52.5v-692q0 -31 -22.5 -52.5t-53.5 -21.5q-32 0 -53.5 21.5t-21.5 52.5z" />
<glyph unicode="&#xa7;" horiz-adv-x="964" d="M100 549q0 178 154 301q-96 96 -96 227q0 161 101 249.5t253 88.5q155 0 262 -63q70 -42 70 -84q0 -27 -19.5 -46.5t-46.5 -19.5q-16 0 -29 6t-35.5 22.5t-31.5 22.5q-65 43 -166 43q-82 0 -141.5 -49t-59.5 -151q0 -61 30.5 -112.5t79 -89.5t107 -74.5t117.5 -77 t107.5 -86.5t79 -112.5t30.5 -146.5q0 -179 -155 -303q96 -96 96 -227q0 -159 -100 -247.5t-252 -88.5q-159 0 -262 61q-70 42 -70 84q0 28 18.5 47t46.5 19q16 0 29.5 -6t36 -22t33.5 -23q68 -41 162 -41q82 0 142 49t60 151q0 60 -30.5 111.5t-79 89.5t-107 74.5 t-117.5 77t-107.5 87t-79 113t-30.5 146.5zM256 567q0 -49 16.5 -91.5t41 -72t63 -60.5t72.5 -52t81.5 -51t77.5 -52q103 79 103 189q0 49 -16.5 91.5t-41 72.5t-63.5 61.5t-73.5 52.5t-82.5 51t-78 52q-100 -84 -100 -191z" />
<glyph unicode="&#xa8;" horiz-adv-x="854" d="M143 1368q0 37 26.5 62.5t63.5 25.5q38 0 64.5 -25.5t26.5 -62.5q0 -38 -26.5 -65t-64.5 -27q-37 0 -63.5 27t-26.5 65zM528 1368q0 37 26.5 62.5t63.5 25.5t64 -26t27 -62q0 -38 -27 -65t-64 -27t-63.5 27t-26.5 65z" />
<glyph unicode="&#xa9;" horiz-adv-x="1705" d="M96 733q0 154 59.5 294t160.5 241t241 161t295 60q154 0 293.5 -60t240.5 -161t160.5 -241t59.5 -294t-59.5 -293t-160.5 -239.5t-240.5 -159.5t-293.5 -59t-294 59t-241 159.5t-161 239.5t-60 293zM186 733q0 -136 52 -259t140.5 -212t212.5 -141.5t261 -52.5 t260.5 52.5t212 141.5t141 212t52.5 259q0 183 -88.5 337t-242 243.5t-335.5 89.5t-335.5 -89.5t-242 -243.5t-88.5 -337zM489 727q0 161 115 269t273 108q93 0 170 -31q57 -23 57 -57q0 -19 -12 -31t-31 -12q-10 0 -32 10t-34 14q-57 21 -121 21q-119 0 -203.5 -83 t-84.5 -208q0 -130 84 -210.5t207 -80.5q71 0 122 19q10 3 23.5 8.5t23.5 8.5t19 3q20 0 32.5 -12.5t12.5 -32.5q0 -32 -55 -51q-85 -29 -178 -29q-168 0 -278 103.5t-110 273.5z" />
<glyph unicode="&#xaa;" horiz-adv-x="579" d="M70 1004q0 95 98 143q69 32 248 43v12q0 81 -41 115q-28 22 -80 22q-44 0 -78.5 -11.5t-55 -22.5t-30.5 -11q-15 0 -25 10t-10 25q0 32 67 59t142 27q82 0 135 -39q68 -52 68 -184v-313q0 -21 -12 -33t-33 -12q-38 0 -41 49q-68 -45 -160 -45q-84 0 -135 43 q-57 44 -57 123zM141 571q0 14 10 25.5t23 11.5h229q13 0 24 -11.5t11 -25.5q0 -13 -10.5 -22.5t-24.5 -9.5h-229q-14 0 -23.5 9.5t-9.5 22.5zM160 1006q0 -46 35.5 -70.5t93.5 -24.5q68 0 127 33v180q-122 -10 -168 -24q-88 -24 -88 -94z" />
<glyph unicode="&#xab;" horiz-adv-x="1177" d="M80 461q0 25 20 49l398 410q17 20 49 20q29 0 49 -19t20 -47q0 -29 -20 -49l-352 -364l352 -365q20 -20 20 -49t-19.5 -47t-49.5 -18q-32 0 -49 20l-398 410q-20 24 -20 49zM563 461q0 28 21 49l395 410q20 20 51 20q29 0 49.5 -19t20.5 -47t-21 -49l-352 -364l352 -365 q21 -21 21 -49t-20.5 -46.5t-49.5 -18.5q-31 0 -51 20l-395 410q-21 21 -21 49z" />
<glyph unicode="&#xac;" horiz-adv-x="1142" d="M72 719q0 31 21 52.5t50 21.5h856q29 0 50.5 -21.5t21.5 -52.5v-279q0 -29 -21 -49t-51 -20q-29 0 -50 20t-21 49v205h-785q-29 0 -50 21.5t-21 52.5z" />
<glyph unicode="&#xad;" horiz-adv-x="1024" d="M174 594q0 28 20.5 49t49.5 21h536q29 0 49.5 -21t20.5 -49q0 -29 -20.5 -50.5t-49.5 -21.5h-536q-29 0 -49.5 21.5t-20.5 50.5z" />
<glyph unicode="&#xae;" horiz-adv-x="950" d="M96 1096q0 157 110 267t265 110q157 0 268 -110t111 -267q0 -155 -110 -265t-267 -110q-155 0 -266 110t-111 265zM147 1096q0 -134 95 -230t231 -96q135 0 230.5 96t95.5 230q0 137 -95 232t-231 95t-231 -95t-95 -232zM322 936v324q0 24 26 24h137q63 0 101.5 -27 t38.5 -86q0 -84 -90 -106l81 -104q15 -19 15 -27q0 -11 -8 -18t-19 -7q-14 0 -29 21l-98 131h-102v-125q0 -11 -7.5 -19t-19.5 -8t-19 8t-7 19zM375 1108h102q94 0 94 66q0 65 -90 65h-106v-131z" />
<glyph unicode="&#xaf;" horiz-adv-x="854" d="M154 1348q0 25 18 43t43 18h422q26 0 43.5 -18t17.5 -43q0 -26 -17.5 -44t-43.5 -18h-422q-25 0 -43 18t-18 44z" />
<glyph unicode="&#xb0;" horiz-adv-x="757" d="M102 1214q0 116 81 196.5t196 80.5t195.5 -80.5t80.5 -196.5t-80.5 -196t-195.5 -80q-116 0 -196.5 80.5t-80.5 195.5zM174 1214q0 -86 59 -145t146 -59t147 59t60 145q0 87 -60 147t-147 60q-88 0 -146.5 -59.5t-58.5 -147.5z" />
<glyph unicode="&#xb1;" horiz-adv-x="1146" d="M72 72q0 28 20 48.5t49 20.5h867q28 0 47.5 -20.5t19.5 -48.5q0 -31 -19.5 -51.5t-47.5 -20.5h-867q-29 0 -49 20.5t-20 51.5zM72 803q0 28 20 48.5t49 20.5h361v363q0 29 21 49.5t50 20.5t50.5 -20.5t21.5 -49.5v-363h363q28 0 47.5 -20.5t19.5 -48.5q0 -31 -19.5 -51.5 t-47.5 -20.5h-363v-362q0 -28 -21.5 -48t-50.5 -20t-50 20t-21 48v362h-361q-29 0 -49 20.5t-20 51.5z" />
<glyph unicode="&#xb2;" horiz-adv-x="854" d="M188 723q0 67 15 114t59 91q37 39 121 86.5t102 60.5q37 27 56.5 56t19.5 69q0 62 -42 98.5t-107 36.5q-45 0 -95 -24q-11 -5 -23.5 -12.5t-19.5 -11t-15.5 -6.5t-16.5 -3q-16 0 -27.5 11.5t-11.5 29.5q0 31 55 59q76 37 156 37q101 0 168 -59t67 -154q0 -96 -71 -160 q-38 -36 -120.5 -80.5t-115.5 -72.5q-55 -49 -55 -125h336q17 0 28 -12t11 -29t-11 -29t-28 -12h-392q-20 0 -31.5 11.5t-11.5 29.5z" />
<glyph unicode="&#xb3;" horiz-adv-x="854" d="M203 745q0 17 12 29t29 12q9 0 17.5 -3t23.5 -10.5t22 -10.5q46 -17 90 -17q76 0 120 39t44 101q0 90 -90 121q-19 7 -53.5 9t-48.5 5q-25 9 -25 35t25 35q5 1 43.5 4.5t58.5 11.5q66 28 66 106q0 52 -36 87.5t-98 35.5q-43 0 -88 -20q-48 -21 -55 -21q-18 0 -30.5 12 t-12.5 27q0 12 7.5 21.5t14 14t19.5 11.5q82 35 152 35q96 0 153.5 -55t57.5 -137q0 -117 -109 -162q135 -48 135 -182q0 -92 -66 -149.5t-180 -57.5q-73 0 -129 18q-69 19 -69 55z" />
<glyph unicode="&#xb4;" horiz-adv-x="854" d="M283 1212q0 18 12 39l156 283q21 43 57 43q26 0 43.5 -16.5t17.5 -40.5q0 -18 -16 -45l-166 -275q-23 -37 -53 -37q-21 0 -36 14t-15 35z" />
<glyph unicode="&#xb5;" horiz-adv-x="1118" d="M133 -285v1155q0 31 22 51.5t54 20.5q31 0 52.5 -20.5t21.5 -51.5v-467q0 -111 39 -180q62 -110 237 -110q88 0 149 30t89 80q37 65 37 180v467q0 30 22 51t53 21t53.5 -21t22.5 -51v-479q0 -158 -70 -262q-47 -72 -139 -110.5t-217 -38.5q-169 0 -276 69v-334 q0 -29 -22 -50t-52 -21q-32 0 -54 21t-22 50z" />
<glyph unicode="&#xb6;" horiz-adv-x="1269" d="M78 1055q0 198 122.5 305.5t348.5 107.5h627q25 0 43 -19t18 -44q0 -27 -18 -45.5t-43 -18.5h-183v-1683q0 -27 -20.5 -46.5t-48.5 -19.5q-29 0 -48.5 19t-19.5 47v1683h-240v-1683q0 -28 -19.5 -47t-47.5 -19q-29 0 -49.5 19t-20.5 47l2 981q-189 10 -296 121.5 t-107 294.5z" />
<glyph unicode="&#xb7;" horiz-adv-x="393" d="M100 707q0 41 29 69.5t70 28.5t69.5 -28.5t28.5 -69.5t-28.5 -70t-69.5 -29t-70 29t-29 70z" />
<glyph unicode="&#xb8;" horiz-adv-x="819" d="M244 -356q0 17 12.5 29t28.5 12q8 0 31 -3.5t44 -3.5q59 0 102.5 24t43.5 75q0 43 -36.5 64.5t-90.5 21.5q-21 0 -33.5 12.5t-9.5 36.5l10 108h78l2 -92q81 -6 131.5 -46.5t50.5 -106.5q0 -64 -40.5 -106.5t-95.5 -58.5t-120 -16q-43 0 -73 9q-35 11 -35 41z" />
<glyph unicode="&#xb9;" horiz-adv-x="854" d="M213 1300q0 30 35 43l168 66q24 6 28 6q45 0 45 -47v-604h123q18 0 28.5 -11.5t10.5 -29.5t-10.5 -29.5t-28.5 -11.5h-354q-17 0 -29 12t-12 29t12 29t29 12h137v549l-112 -43q-19 -8 -31 -8q-16 0 -27.5 10t-11.5 28z" />
<glyph unicode="&#xba;" horiz-adv-x="788" d="M100 1126q0 113 72 195q84 94 221 94q139 0 223 -94q72 -82 72 -195q0 -112 -72 -194q-87 -94 -223 -94q-134 0 -221 94q-72 82 -72 194zM195 1126q0 -82 49 -137q57 -67 149 -67t152 67q49 55 49 137q0 83 -49 138q-62 69 -152 69t-149 -69q-49 -55 -49 -138zM246 571 q0 14 10 25.5t23 11.5h229q13 0 24 -11.5t11 -25.5q0 -13 -10.5 -22.5t-24.5 -9.5h-229q-14 0 -23.5 9.5t-9.5 22.5z" />
<glyph unicode="&#xbb;" horiz-adv-x="1177" d="M80 47q0 26 20 49l351 365l-351 364q-20 23 -20 49q0 28 19.5 47t47.5 19q32 0 52 -20l395 -410q22 -22 22 -49t-22 -49l-395 -410q-20 -20 -49 -20q-30 0 -50 18t-20 47zM563 47q0 30 19 49l352 365l-352 364q-19 19 -19 49q0 28 19.5 47t48.5 19q31 0 51 -20l395 -410 q23 -23 23 -49t-23 -49l-395 -410q-20 -20 -51 -20q-28 0 -48 18t-20 47z" />
<glyph unicode="&#xbc;" horiz-adv-x="854" d="M80 485q0 17 12 29t29 12h610q15 0 27 -12t12 -29t-12 -29t-27 -12h-610q-17 0 -29 12t-12 29zM121 -225q0 15 10 28l334 473q18 27 43 27q21 0 34 -14t13 -33v-442h84q15 0 26 -12t11 -27q0 -17 -11 -28t-26 -11h-84v-131q0 -19 -13 -32t-32 -13q-20 0 -32.5 13 t-12.5 32v131h-305q-17 0 -28 11t-11 28zM205 1300q0 31 35 43l166 66q24 6 30 6q43 0 43 -47v-604h123q18 0 28.5 -11.5t10.5 -29.5t-10.5 -29.5t-28.5 -11.5h-354q-17 0 -28 12t-11 29t11 29t28 12h137v549l-111 -43q-21 -8 -32 -8q-16 0 -26.5 10t-10.5 28zM236 -186h229 v325z" />
<glyph unicode="&#xbd;" horiz-adv-x="854" d="M80 485q0 17 12 29t29 12h610q18 0 28.5 -11.5t10.5 -29.5t-10.5 -29.5t-28.5 -11.5h-610q-18 0 -29.5 11.5t-11.5 29.5zM186 -389q0 67 15 114t59 91q37 39 122.5 88.5t98.5 58.5q78 57 78 125q0 62 -42 98.5t-107 36.5q-51 0 -97 -24q-13 -6 -28 -15t-25 -13.5 t-20 -4.5q-18 0 -29.5 11.5t-11.5 29.5q0 30 57 59q76 37 156 37q101 0 168 -59t67 -154t-72 -160q-38 -36 -120 -80.5t-115 -72.5q-57 -51 -57 -125h338q15 0 26.5 -12t11.5 -29t-11.5 -29t-26.5 -12h-392q-20 0 -31.5 11.5t-11.5 29.5zM205 1300q0 31 35 43l166 66 q24 6 30 6q43 0 43 -47v-604h123q18 0 28.5 -11.5t10.5 -29.5t-10.5 -29.5t-28.5 -11.5h-354q-17 0 -28 12t-11 29t11 29t28 12h137v549l-111 -43q-28 -8 -32 -8q-16 0 -26.5 10t-10.5 28z" />
<glyph unicode="&#xbe;" horiz-adv-x="854" d="M80 485q0 17 12 29t29 12h610q15 0 27 -12t12 -29t-12 -29t-27 -12h-610q-17 0 -29 12t-12 29zM121 -225q0 15 10 28l334 473q18 27 43 27q21 0 34 -14t13 -33v-442h84q15 0 26 -12t11 -27q0 -17 -11 -28t-26 -11h-84v-131q0 -19 -13 -32t-32 -13q-20 0 -32.5 13 t-12.5 32v131h-305q-17 0 -28 11t-11 28zM184 745q0 17 12 29t29 12q9 0 17.5 -2.5t24.5 -10.5l22 -11q46 -17 90 -17q76 0 120 39t44 101q0 90 -90 121q-19 7 -54 9t-49 5q-24 9 -24 35t24 35q5 1 44 4.5t59 11.5q65 27 65 106q0 52 -35.5 87.5t-97.5 35.5q-43 0 -88 -20 q-48 -21 -55 -21q-18 0 -30.5 12t-12.5 27q0 12 7.5 21.5t14 14t19.5 11.5q82 35 151 35q96 0 153.5 -55t57.5 -137q0 -117 -108 -162q135 -48 135 -182q0 -92 -66 -149.5t-180 -57.5q-73 0 -129 18q-70 19 -70 55zM236 -186h229v325z" />
<glyph unicode="&#xbf;" horiz-adv-x="1021" d="M90 -92q0 112 52 185.5t159 148.5q39 28 62 47t52.5 48.5t46.5 63.5t23 74q9 53 25 74.5t51 21.5q31 0 51.5 -21.5t20.5 -55.5q0 -69 -49 -158q-19 -35 -49.5 -70t-49.5 -52t-72 -60t-67 -54q-102 -85 -102 -192q0 -118 80.5 -189t205.5 -71q79 0 136 20t120 62 q17 12 45 35t43 30.5t35 7.5q28 0 47 -19.5t19 -47.5q0 -32 -26 -59.5t-79 -61.5q-158 -104 -350 -104q-184 0 -307 110.5t-123 286.5zM467 850q0 40 27 67t67 27t67 -27t27 -67t-27 -67t-67 -27t-67 27t-27 67z" />
<glyph unicode="&#xc0;" horiz-adv-x="1415" d="M150 59v754q0 127 43 244t129 205q151 151 385 151q239 0 387 -151q85 -88 128.5 -205.5t43.5 -243.5v-754q0 -32 -24.5 -55.5t-57.5 -23.5q-35 0 -58.5 23t-23.5 56v426h-789v-426q0 -32 -24 -55.5t-58 -23.5t-57.5 23.5t-23.5 55.5zM313 631h789v178q0 207 -113 332 q-111 121 -282 121q-175 0 -283 -121q-111 -120 -111 -332v-178zM563 1933q0 23 18.5 40.5t43.5 17.5q35 0 57 -43l158 -283q12 -21 12 -39q0 -21 -15.5 -35t-37.5 -14q-33 0 -54 37l-165 274q-17 28 -17 45z" />
<glyph unicode="&#xc1;" horiz-adv-x="1415" d="M150 59v754q0 127 43 244t129 205q151 151 385 151q239 0 387 -151q85 -88 128.5 -205.5t43.5 -243.5v-754q0 -32 -24.5 -55.5t-57.5 -23.5q-35 0 -58.5 23t-23.5 56v426h-789v-426q0 -32 -24 -55.5t-58 -23.5t-57.5 23.5t-23.5 55.5zM313 631h789v178q0 207 -113 332 q-111 121 -282 121q-175 0 -283 -121q-111 -120 -111 -332v-178zM563 1626q0 18 12 39l156 283q21 43 57 43q26 0 44 -17t18 -41q0 -18 -16 -45l-166 -274q-23 -37 -54 -37q-21 0 -36 14t-15 35z" />
<glyph unicode="&#xc2;" horiz-adv-x="1415" d="M150 59v754q0 127 43 244t129 205q151 151 385 151q239 0 387 -151q85 -88 128.5 -205.5t43.5 -243.5v-754q0 -32 -24.5 -55.5t-57.5 -23.5q-35 0 -58.5 23t-23.5 56v426h-789v-426q0 -32 -24 -55.5t-58 -23.5t-57.5 23.5t-23.5 55.5zM313 631h789v178q0 207 -113 332 q-111 121 -282 121q-175 0 -283 -121q-111 -120 -111 -332v-178zM381 1659q0 20 25 45l253 260q25 25 48 25q24 0 49 -25l252 -260q26 -30 26 -45q0 -25 -16 -40t-39 -15t-39 16l-233 240l-232 -240q-16 -16 -39 -16q-24 0 -39.5 14.5t-15.5 40.5z" />
<glyph unicode="&#xc3;" horiz-adv-x="1415" d="M150 59v754q0 127 43 244t129 205q151 151 385 151q239 0 387 -151q85 -88 128.5 -205.5t43.5 -243.5v-754q0 -32 -24.5 -55.5t-57.5 -23.5q-35 0 -58.5 23t-23.5 56v426h-789v-426q0 -32 -24 -55.5t-58 -23.5t-57.5 23.5t-23.5 55.5zM313 631h789v178q0 207 -113 332 q-111 121 -282 121q-175 0 -283 -121q-111 -120 -111 -332v-178zM371 1794q0 41 45 86q56 59 143 59q82 0 162 -53q7 -4 25 -16.5t26.5 -17.5t22.5 -12t26.5 -10t26.5 -3q28 0 50.5 14.5t34 31.5t28 31.5t34.5 14.5q23 0 36 -15.5t13 -39.5q0 -43 -43 -86q-55 -58 -143 -58 q-75 0 -162 56q-6 4 -20.5 13.5t-21 13l-19.5 10.5t-21.5 10t-20.5 5.5t-24 2.5q-29 0 -51 -14t-33.5 -31t-27.5 -31t-35 -14q-23 0 -37 15t-14 38z" />
<glyph unicode="&#xc4;" horiz-adv-x="1415" d="M150 59v754q0 127 43 244t129 205q151 151 385 151q239 0 387 -151q85 -88 128.5 -205.5t43.5 -243.5v-754q0 -32 -24.5 -55.5t-57.5 -23.5q-35 0 -58.5 23t-23.5 56v426h-789v-426q0 -32 -24 -55.5t-58 -23.5t-57.5 23.5t-23.5 55.5zM313 631h789v178q0 207 -113 332 q-111 121 -282 121q-175 0 -283 -121q-111 -120 -111 -332v-178zM424 1782q0 37 26.5 62.5t63.5 25.5q38 0 64 -25.5t26 -62.5q0 -38 -26 -65t-64 -27q-37 0 -63.5 27t-26.5 65zM809 1782q0 37 26.5 62.5t63.5 25.5t63.5 -25.5t26.5 -62.5q0 -38 -26.5 -65t-63.5 -27 t-63.5 27t-26.5 65z" />
<glyph unicode="&#xc5;" horiz-adv-x="1415" d="M150 59v754q0 127 43 244t129 205q151 151 385 151q239 0 387 -151q85 -88 128.5 -205.5t43.5 -243.5v-754q0 -32 -24.5 -55.5t-57.5 -23.5q-35 0 -58.5 23t-23.5 56v426h-789v-426q0 -32 -24 -55.5t-58 -23.5t-57.5 23.5t-23.5 55.5zM313 631h789v178q0 207 -113 332 q-111 121 -282 121q-175 0 -283 -121q-111 -120 -111 -332v-178zM469 1765q0 98 70 168t168 70t166.5 -69.5t68.5 -168.5q0 -100 -68.5 -168.5t-166.5 -68.5q-99 0 -168.5 69t-69.5 168zM545 1765q0 -69 47 -116t115 -47t114.5 47t46.5 116q0 68 -47 116t-114 48t-114.5 -48 t-47.5 -116z" />
<glyph unicode="&#xc6;" horiz-adv-x="2060" d="M150 59v754q0 127 42 245t127 204q144 151 381 151q233 0 385 -158v60q0 33 23.5 56.5t58.5 23.5h758q29 0 49.5 -22t20.5 -50q0 -31 -20.5 -52.5t-49.5 -21.5h-676v-477h570q29 0 50 -22t21 -52q0 -29 -21 -50t-50 -21h-570v-482h676q29 0 49.5 -21.5t20.5 -51.5 q0 -29 -20.5 -50.5t-49.5 -21.5h-758q-35 0 -58.5 23.5t-23.5 56.5v405h-772v-426q0 -32 -24 -55.5t-58 -23.5t-57.5 23.5t-23.5 55.5zM313 631h772v178q0 209 -108 332q-108 121 -277 121q-170 0 -278 -121q-109 -124 -109 -332v-178z" />
<glyph unicode="&#xc7;" horiz-adv-x="1349" d="M96 698q0 144 59 277t157.5 228.5t233 152.5t279.5 57q194 0 342 -67q99 -42 99 -103q0 -33 -21.5 -54.5t-54.5 -21.5q-14 0 -33.5 10t-52 27t-66.5 29q-97 33 -215 33q-149 0 -277.5 -76.5t-204 -207.5t-75.5 -284q0 -166 76.5 -297.5t203.5 -202.5t277 -71 q114 0 217 35q37 13 71.5 30.5t54.5 27t34 9.5q31 0 53.5 -21.5t22.5 -53.5q0 -33 -25.5 -56.5t-74.5 -46.5q-138 -65 -320 -71l2 -52q81 -6 131.5 -46.5t50.5 -106.5q0 -64 -40.5 -106.5t-95.5 -58.5t-120 -16q-43 0 -73 9q-35 11 -35 41q0 17 12.5 29t28.5 12 q8 0 31.5 -3.5t44.5 -3.5q59 0 102 24t43 75q0 43 -36.5 64.5t-90.5 21.5q-21 0 -33.5 12.5t-9.5 36.5l6 70q-142 9 -266 63.5t-215.5 145.5t-144 222.5t-52.5 284.5z" />
<glyph unicode="&#xc8;" horiz-adv-x="1232" d="M154 80v1235q0 33 23.5 56.5t58.5 23.5h862q29 0 49 -21t20 -51q0 -31 -20 -52.5t-49 -21.5h-781v-477h674q30 0 51 -22t21 -52t-20.5 -50.5t-51.5 -20.5h-674v-482h781q29 0 49 -21t20 -52q0 -30 -20 -51t-49 -21h-862q-35 0 -58.5 23.5t-23.5 56.5zM471 1933 q0 23 18 40.5t43 17.5q36 0 58 -43l158 -283q12 -21 12 -39q0 -21 -15.5 -35t-37.5 -14q-33 0 -54 37l-166 274q-16 27 -16 45z" />
<glyph unicode="&#xc9;" horiz-adv-x="1232" d="M154 80v1235q0 33 23.5 56.5t58.5 23.5h862q29 0 49 -21t20 -51q0 -31 -20 -52.5t-49 -21.5h-781v-477h674q30 0 51 -22t21 -52t-20.5 -50.5t-51.5 -20.5h-674v-482h781q29 0 49 -21t20 -52q0 -30 -20 -51t-49 -21h-862q-35 0 -58.5 23.5t-23.5 56.5zM500 1626 q0 18 12 39l156 283q21 43 57 43q26 0 43.5 -17t17.5 -41q0 -18 -16 -45l-166 -274q-23 -37 -53 -37q-21 0 -36 14t-15 35z" />
<glyph unicode="&#xca;" horiz-adv-x="1232" d="M154 80v1235q0 33 23.5 56.5t58.5 23.5h862q29 0 49 -21t20 -51q0 -31 -20 -52.5t-49 -21.5h-781v-477h674q30 0 51 -22t21 -52t-20.5 -50.5t-51.5 -20.5h-674v-482h781q29 0 49 -21t20 -52q0 -30 -20 -51t-49 -21h-862q-35 0 -58.5 23.5t-23.5 56.5zM303 1659 q0 20 25 45l254 260q25 25 47 25q24 0 49 -25l252 -260q26 -30 26 -45q0 -25 -16 -40t-39 -15t-39 16l-233 240l-232 -240q-16 -16 -39 -16q-24 0 -39.5 14.5t-15.5 40.5z" />
<glyph unicode="&#xcb;" horiz-adv-x="1232" d="M154 80v1235q0 33 23.5 56.5t58.5 23.5h862q29 0 49 -21t20 -51q0 -31 -20 -52.5t-49 -21.5h-781v-477h674q30 0 51 -22t21 -52t-20.5 -50.5t-51.5 -20.5h-674v-482h781q29 0 49 -21t20 -52q0 -30 -20 -51t-49 -21h-862q-35 0 -58.5 23.5t-23.5 56.5zM352 1782 q0 37 26.5 62.5t63.5 25.5q38 0 64 -25.5t26 -62.5q0 -38 -26 -65t-64 -27q-37 0 -63.5 27t-26.5 65zM737 1782q0 37 26.5 62.5t63.5 25.5t64 -26t27 -62q0 -38 -27 -65t-64 -27t-63.5 27t-26.5 65z" />
<glyph unicode="&#xcc;" horiz-adv-x="471" d="M96 1933q0 23 18.5 40.5t43.5 17.5q35 0 57 -43l158 -283q12 -21 12 -39q0 -21 -15.5 -35t-37.5 -14q-32 0 -53 37l-166 274q-17 28 -17 45zM154 59v1274q0 32 24 56t58 24t57.5 -23.5t23.5 -56.5v-1274q0 -32 -23.5 -55.5t-57.5 -23.5t-58 23.5t-24 55.5z" />
<glyph unicode="&#xcd;" horiz-adv-x="471" d="M96 1626q0 16 13 39l155 283q21 43 58 43q26 0 43.5 -17t17.5 -41q0 -18 -16 -45l-166 -274q-23 -37 -54 -37q-21 0 -36 14t-15 35zM154 59v1274q0 32 24 56t58 24t57.5 -23.5t23.5 -56.5v-1274q0 -32 -23.5 -55.5t-57.5 -23.5t-58 23.5t-24 55.5z" />
<glyph unicode="&#xce;" horiz-adv-x="471" d="M-86 1659q0 20 25 45l254 260q25 25 47 25q24 0 49 -25l252 -260q26 -30 26 -45q0 -25 -16 -40t-39 -15t-39 16l-233 240l-232 -240q-16 -16 -39 -16q-24 0 -39.5 14.5t-15.5 40.5zM154 59v1274q0 32 24 56t58 24t57.5 -23.5t23.5 -56.5v-1274q0 -32 -23.5 -55.5 t-57.5 -23.5t-58 23.5t-24 55.5z" />
<glyph unicode="&#xcf;" horiz-adv-x="471" d="M-43 1782q0 37 26.5 62.5t63.5 25.5q38 0 64 -25.5t26 -62.5q0 -38 -26 -65t-64 -27q-37 0 -63.5 27t-26.5 65zM154 59v1274q0 32 24 56t58 24t57.5 -23.5t23.5 -56.5v-1274q0 -32 -23.5 -55.5t-57.5 -23.5t-58 23.5t-24 55.5zM342 1782q0 37 26.5 62.5t63.5 25.5 t63.5 -25.5t26.5 -62.5q0 -38 -26.5 -65t-63.5 -27t-63.5 27t-26.5 65z" />
<glyph unicode="&#xd0;" horiz-adv-x="1521" d="M-45 696q0 28 20 49t48 21h141v549q0 33 23.5 56.5t58.5 23.5h436q386 0 582 -219q161 -182 161 -480q0 -365 -260 -553q-197 -143 -514 -143h-405q-35 0 -58.5 23.5t-23.5 56.5v547h-141q-28 0 -48 20t-20 49zM328 139h307q232 0 381 86q115 65 178 184t63 287 q0 240 -129 385q-152 174 -473 174h-327v-489h293q27 0 47 -21t20 -49q0 -29 -19.5 -49t-47.5 -20h-293v-488z" />
<glyph unicode="&#xd1;" horiz-adv-x="1515" d="M154 53v1272q0 36 27 62t65 26q46 0 82 -45l876 -1102v1071q0 31 23.5 53.5t56.5 22.5q32 0 55 -22.5t23 -53.5v-1269q0 -37 -27 -62.5t-67 -25.5q-44 0 -82 45l-875 1101v-1073q0 -31 -23 -52t-57 -21q-33 0 -55 21t-22 52zM422 1794q0 41 45 86q56 59 143 59 q82 0 162 -53q7 -4 25 -16.5t26.5 -17.5t22.5 -12t26.5 -10t26.5 -3q28 0 50.5 14.5t34.5 31.5t28.5 31.5t34.5 14.5q23 0 36 -15.5t13 -39.5q0 -43 -43 -86q-55 -58 -144 -58q-74 0 -161 56q-6 4 -20.5 13.5t-21 13l-19.5 10.5t-21.5 10t-20.5 5.5t-24 2.5q-29 0 -51.5 -14 t-33.5 -31t-27.5 -31t-35.5 -14q-23 0 -37 15t-14 38z" />
<glyph unicode="&#xd2;" horiz-adv-x="1650" d="M96 694q0 149 58 283t156.5 229t233 151t281.5 56t281.5 -56t233 -151t156.5 -229t58 -283q0 -199 -98.5 -363.5t-266 -257.5t-364.5 -93q-147 0 -281.5 55.5t-233 150t-156.5 227.5t-58 281zM270 694q0 -154 73 -283t200.5 -204.5t281.5 -75.5t282 76t201.5 205 t73.5 282t-73.5 283t-202 206.5t-281.5 76.5t-281 -76.5t-201 -206.5t-73 -283zM680 1933q0 23 18 40.5t43 17.5q36 0 58 -43l157 -283q13 -23 13 -39q0 -21 -16 -35t-38 -14q-32 0 -53 37l-166 274q-16 27 -16 45z" />
<glyph unicode="&#xd3;" horiz-adv-x="1650" d="M96 694q0 149 58 283t156.5 229t233 151t281.5 56t281.5 -56t233 -151t156.5 -229t58 -283q0 -199 -98.5 -363.5t-266 -257.5t-364.5 -93q-147 0 -281.5 55.5t-233 150t-156.5 227.5t-58 281zM270 694q0 -154 73 -283t200.5 -204.5t281.5 -75.5t282 76t201.5 205 t73.5 282t-73.5 283t-202 206.5t-281.5 76.5t-281 -76.5t-201 -206.5t-73 -283zM682 1626q0 18 12 39l156 283q21 43 57 43q26 0 44 -17t18 -41q0 -17 -17 -45l-166 -274q-23 -37 -53 -37q-21 0 -36 14t-15 35z" />
<glyph unicode="&#xd4;" horiz-adv-x="1650" d="M96 694q0 149 58 283t156.5 229t233 151t281.5 56t281.5 -56t233 -151t156.5 -229t58 -283q0 -199 -98.5 -363.5t-266 -257.5t-364.5 -93q-147 0 -281.5 55.5t-233 150t-156.5 227.5t-58 281zM270 694q0 -154 73 -283t200.5 -204.5t281.5 -75.5t282 76t201.5 205 t73.5 282t-73.5 283t-202 206.5t-281.5 76.5t-281 -76.5t-201 -206.5t-73 -283zM498 1659q0 21 24 45l254 260q25 25 47 25q24 0 49 -25l252 -260q27 -31 27 -45q0 -25 -16 -40t-39 -15t-39 16l-234 240l-231 -240q-16 -16 -39 -16q-24 0 -39.5 14.5t-15.5 40.5z" />
<glyph unicode="&#xd5;" horiz-adv-x="1650" d="M96 694q0 149 58 283t156.5 229t233 151t281.5 56t281.5 -56t233 -151t156.5 -229t58 -283q0 -199 -98.5 -363.5t-266 -257.5t-364.5 -93q-147 0 -281.5 55.5t-233 150t-156.5 227.5t-58 281zM270 694q0 -154 73 -283t200.5 -204.5t281.5 -75.5t282 76t201.5 205 t73.5 282t-73.5 283t-202 206.5t-281.5 76.5t-281 -76.5t-201 -206.5t-73 -283zM485 1794q0 41 45 86q56 59 144 59q82 0 162 -53q7 -4 25 -16.5t26.5 -17.5t22.5 -12t26.5 -10t26.5 -3q28 0 50.5 14.5t34 31.5t28 31.5t34.5 14.5q23 0 36 -15.5t13 -39.5q0 -43 -43 -86 q-55 -58 -143 -58q-75 0 -162 56q-6 4 -20.5 13.5t-21 13l-19.5 10.5t-21.5 10t-20.5 5.5t-24 2.5q-29 0 -51 -14t-33.5 -31t-27.5 -31t-35 -14q-23 0 -37.5 15t-14.5 38z" />
<glyph unicode="&#xd6;" horiz-adv-x="1650" d="M96 694q0 149 58 283t156.5 229t233 151t281.5 56t281.5 -56t233 -151t156.5 -229t58 -283q0 -199 -98.5 -363.5t-266 -257.5t-364.5 -93q-147 0 -281.5 55.5t-233 150t-156.5 227.5t-58 281zM270 694q0 -154 73 -283t200.5 -204.5t281.5 -75.5t282 76t201.5 205 t73.5 282t-73.5 283t-202 206.5t-281.5 76.5t-281 -76.5t-201 -206.5t-73 -283zM541 1782q0 37 26.5 62.5t63.5 25.5q38 0 64 -25.5t26 -62.5q0 -38 -26 -65t-64 -27q-37 0 -63.5 27t-26.5 65zM926 1782q0 37 26.5 62.5t63.5 25.5t63.5 -25.5t26.5 -62.5q0 -38 -26.5 -65 t-63.5 -27t-63.5 27t-26.5 65z" />
<glyph unicode="&#xd7;" horiz-adv-x="987" d="M69 370q0 29 21 50l303 303l-303 303q-21 21 -21 49.5t21 50.5q22 21 50 21t50 -21l304 -303l303 303q21 21 49.5 21t50.5 -21q21 -23 20 -51t-20 -49l-303 -303l303 -303q19 -21 20 -49.5t-20 -51.5q-24 -21 -51.5 -21t-48.5 21l-303 304l-304 -304q-22 -21 -50 -21 t-50 21q-21 22 -21 51z" />
<glyph unicode="&#xd8;" horiz-adv-x="1650" d="M96 694q0 149 58.5 283t157 229t233.5 151t282 56q236 0 424 -139l95 108q18 21 43 21q22 0 37.5 -16.5t15.5 -40.5q0 -22 -15 -37l-90 -105q102 -97 159.5 -229.5t57.5 -280.5q0 -199 -98.5 -363.5t-265.5 -257.5t-363 -93q-242 0 -430 137l-94 -111q-17 -20 -43 -20 q-22 0 -37.5 16.5t-15.5 40.5q0 23 14 37l90 106q-102 97 -158.5 228.5t-56.5 279.5zM270 694q0 -108 40.5 -207.5t113.5 -173.5l719 836q-140 111 -318 111q-151 0 -279.5 -78t-202 -208t-73.5 -280zM506 240q137 -109 319 -109q113 0 217 45.5t178 122t118 180t44 215.5 q0 108 -41.5 207.5t-115.5 173.5z" />
<glyph unicode="&#xd9;" horiz-adv-x="1478" d="M150 551v782q0 33 24 56.5t57 23.5q35 0 58.5 -23.5t23.5 -56.5v-762q0 -202 105 -319q113 -125 319 -125q211 0 324 125q104 116 104 319v762q0 33 23.5 56.5t58.5 23.5q34 0 58 -24t24 -56v-782q0 -248 -135 -395q-156 -176 -455 -176q-298 0 -454 176 q-135 147 -135 395zM592 1933q0 23 18 40.5t43 17.5q36 0 58 -43l157 -283q13 -23 13 -39q0 -21 -16 -35t-38 -14q-32 0 -53 37l-166 274q-16 27 -16 45z" />
<glyph unicode="&#xda;" horiz-adv-x="1478" d="M150 551v782q0 33 24 56.5t57 23.5q35 0 58.5 -23.5t23.5 -56.5v-762q0 -202 105 -319q113 -125 319 -125q211 0 324 125q104 116 104 319v762q0 33 23.5 56.5t58.5 23.5q34 0 58 -24t24 -56v-782q0 -248 -135 -395q-156 -176 -455 -176q-298 0 -454 176 q-135 147 -135 395zM594 1626q0 18 12 39l156 283q21 43 57 43q26 0 44 -17t18 -41q0 -17 -17 -45l-166 -274q-23 -37 -53 -37q-21 0 -36 14t-15 35z" />
<glyph unicode="&#xdb;" horiz-adv-x="1478" d="M150 551v782q0 33 24 56.5t57 23.5q35 0 58.5 -23.5t23.5 -56.5v-762q0 -202 105 -319q113 -125 319 -125q211 0 324 125q104 116 104 319v762q0 33 23.5 56.5t58.5 23.5q34 0 58 -24t24 -56v-782q0 -248 -135 -395q-156 -176 -455 -176q-298 0 -454 176 q-135 147 -135 395zM412 1659q0 21 24 45l254 260q25 25 47 25q24 0 49 -25l252 -260q27 -31 27 -45q0 -25 -16 -40t-39 -15t-39 16l-234 240l-231 -240q-16 -16 -39 -16q-24 0 -39.5 14.5t-15.5 40.5z" />
<glyph unicode="&#xdc;" horiz-adv-x="1478" d="M150 551v782q0 33 24 56.5t57 23.5q35 0 58.5 -23.5t23.5 -56.5v-762q0 -202 105 -319q113 -125 319 -125q211 0 324 125q104 116 104 319v762q0 33 23.5 56.5t58.5 23.5q34 0 58 -24t24 -56v-782q0 -248 -135 -395q-156 -176 -455 -176q-298 0 -454 176 q-135 147 -135 395zM442 1782q0 37 26.5 62.5t63.5 25.5q38 0 64.5 -25.5t26.5 -62.5q0 -38 -26.5 -65t-64.5 -27q-37 0 -63.5 27t-26.5 65zM827 1782q0 36 27 62t64 26t63.5 -25.5t26.5 -62.5q0 -38 -26.5 -65t-63.5 -27t-64 27t-27 65z" />
<glyph unicode="&#xdd;" horiz-adv-x="1157" d="M2 1335q0 34 23 56t57 22q44 0 72 -41l424 -596l426 596q28 41 71 41q34 0 57 -23t23 -55q0 -28 -16 -57l-480 -666v-553q0 -32 -23.5 -55.5t-57.5 -23.5t-58 23.5t-24 55.5v553l-476 668q-18 29 -18 55zM442 1626q0 16 13 39l155 283q21 43 58 43q26 0 43.5 -17 t17.5 -41q0 -18 -16 -45l-166 -274q-23 -37 -53 -37q-21 0 -36.5 14t-15.5 35z" />
<glyph unicode="&#xde;" horiz-adv-x="1282" d="M154 -219v1552q0 32 24 56t58 24t57.5 -23.5t23.5 -56.5v-227h404q199 0 321 -96q164 -129 164 -363q0 -117 -46.5 -213.5t-129.5 -157.5q-120 -88 -330 -88h-383v-407q0 -32 -23.5 -55t-57.5 -23t-58 23t-24 55zM317 332h357q163 0 248 61q118 85 118 254 q0 161 -106 244q-93 72 -238 72h-379v-631z" />
<glyph unicode="&#xdf;" horiz-adv-x="1140" d="M147 -61v1079q0 190 103 292.5t278 102.5q181 0 282 -76t101 -223q0 -66 -28.5 -116t-69 -77t-81 -46.5t-69 -37t-28.5 -36.5q0 -26 32 -47.5t96 -49t95 -45.5q191 -107 191 -309q0 -157 -108.5 -263.5t-278.5 -106.5q-150 0 -246 49q-84 43 -84 96q0 30 16 49t43 19 q9 0 18.5 -3.5t17 -8t21 -13.5t23.5 -14q68 -45 186 -45q108 0 178 66t70 165q0 80 -38.5 128t-106.5 83q-20 10 -59 28t-62.5 29.5t-54.5 31.5t-49 39t-30.5 47.5t-12.5 61.5q0 35 27 61t66 44.5t78 41t66 63.5t27 98q0 96 -60.5 145t-163.5 49q-106 0 -168.5 -66 t-62.5 -206v-1079q0 -31 -22.5 -52.5t-53.5 -21.5q-32 0 -55 21.5t-23 52.5z" />
<glyph unicode="&#xe0;" horiz-adv-x="974" d="M88 252q0 170 188 242q55 22 136.5 36.5t129 19t148.5 11.5v29q0 117 -47 172q-51 59 -166 59q-91 0 -184 -35q-20 -8 -42.5 -19t-36 -16.5t-24.5 -5.5q-25 0 -41 18t-16 42q0 45 100 88q114 49 261 49q184 0 270 -98q78 -91 78 -252v-541q0 -29 -22.5 -50t-53.5 -21 q-30 0 -52.5 19t-23.5 46q-124 -65 -270 -65q-86 0 -159 28t-123 91.5t-50 152.5zM229 260q0 -80 69 -121t165 -41q110 0 227 60v288q-210 -9 -305 -36q-156 -41 -156 -150zM348 1520q0 23 18.5 40t43.5 17q35 0 57 -43l158 -283q12 -21 12 -39q0 -21 -15.5 -35t-37.5 -14 q-33 0 -54 37l-165 275q-17 28 -17 45z" />
<glyph unicode="&#xe1;" horiz-adv-x="974" d="M88 252q0 170 188 242q55 22 136.5 36.5t129 19t148.5 11.5v29q0 117 -47 172q-51 59 -166 59q-91 0 -184 -35q-20 -8 -42.5 -19t-36 -16.5t-24.5 -5.5q-25 0 -41 18t-16 42q0 45 100 88q114 49 261 49q184 0 270 -98q78 -91 78 -252v-541q0 -29 -22.5 -50t-53.5 -21 q-30 0 -52.5 19t-23.5 46q-124 -65 -270 -65q-86 0 -159 28t-123 91.5t-50 152.5zM229 260q0 -80 69 -121t165 -41q110 0 227 60v288q-210 -9 -305 -36q-156 -41 -156 -150zM342 1212q0 18 12 39l156 283q21 43 57 43q26 0 44 -17t18 -40q0 -17 -17 -45l-166 -275 q-23 -37 -53 -37q-21 0 -36 14t-15 35z" />
<glyph unicode="&#xe2;" horiz-adv-x="974" d="M88 252q0 170 188 242q55 22 136.5 36.5t129 19t148.5 11.5v29q0 117 -47 172q-51 59 -166 59q-91 0 -184 -35q-20 -8 -42.5 -19t-36 -16.5t-24.5 -5.5q-25 0 -41 18t-16 42q0 45 100 88q114 49 261 49q184 0 270 -98q78 -91 78 -252v-541q0 -29 -22.5 -50t-53.5 -21 q-30 0 -52.5 19t-23.5 46q-124 -65 -270 -65q-86 0 -159 28t-123 91.5t-50 152.5zM162 1245q0 21 24 45l254 260q25 25 47 25q25 0 50 -25l251 -260q27 -31 27 -45q0 -25 -16 -40t-39 -15t-39 16l-234 240l-231 -240q-16 -16 -39 -16q-24 0 -39.5 14.5t-15.5 40.5zM229 260 q0 -80 69 -121t165 -41q110 0 227 60v288q-210 -9 -305 -36q-156 -41 -156 -150z" />
<glyph unicode="&#xe3;" horiz-adv-x="974" d="M88 252q0 170 188 242q55 22 136.5 36.5t129 19t148.5 11.5v29q0 117 -47 172q-51 59 -166 59q-91 0 -184 -35q-20 -8 -42.5 -19t-36 -16.5t-24.5 -5.5q-25 0 -41 18t-16 42q0 45 100 88q114 49 261 49q184 0 270 -98q78 -91 78 -252v-541q0 -29 -22.5 -50t-53.5 -21 q-30 0 -52.5 19t-23.5 46q-124 -65 -270 -65q-86 0 -159 28t-123 91.5t-50 152.5zM147 1331q0 40 46 86q57 60 143 60q80 0 162 -54q7 -4 25 -16.5t26.5 -17.5t22.5 -12t26.5 -10t26.5 -3q28 0 50.5 14.5t34 31.5t28 31.5t34.5 14.5q23 0 36 -15.5t13 -39.5q0 -43 -43 -86 q-55 -58 -143 -58q-75 0 -162 56q-6 4 -20.5 13.5t-21 13l-19.5 10.5t-21.5 10t-20.5 5.5t-24 2.5q-29 0 -51 -14t-33.5 -31t-27.5 -31t-35 -14q-23 0 -37.5 15t-14.5 38zM229 260q0 -80 69 -121t165 -41q110 0 227 60v288q-210 -9 -305 -36q-156 -41 -156 -150z" />
<glyph unicode="&#xe4;" horiz-adv-x="974" d="M88 252q0 170 188 242q55 22 136.5 36.5t129 19t148.5 11.5v29q0 117 -47 172q-51 59 -166 59q-91 0 -184 -35q-20 -8 -42.5 -19t-36 -16.5t-24.5 -5.5q-25 0 -41 18t-16 42q0 45 100 88q114 49 261 49q184 0 270 -98q78 -91 78 -252v-541q0 -29 -22.5 -50t-53.5 -21 q-30 0 -52.5 19t-23.5 46q-124 -65 -270 -65q-86 0 -159 28t-123 91.5t-50 152.5zM205 1368q0 37 26.5 62.5t63.5 25.5q38 0 64 -25.5t26 -62.5q0 -38 -26 -65t-64 -27q-37 0 -63.5 27t-26.5 65zM229 260q0 -80 69 -121t165 -41q110 0 227 60v288q-210 -9 -305 -36 q-156 -41 -156 -150zM590 1368q0 37 26.5 62.5t63.5 25.5t63.5 -25.5t26.5 -62.5q0 -38 -26.5 -65t-63.5 -27t-63.5 27t-26.5 65z" />
<glyph unicode="&#xe5;" horiz-adv-x="974" d="M88 252q0 170 188 242q55 22 136.5 36.5t129 19t148.5 11.5v29q0 117 -47 172q-51 59 -166 59q-91 0 -184 -35q-20 -8 -42.5 -19t-36 -16.5t-24.5 -5.5q-25 0 -41 18t-16 42q0 45 100 88q114 49 261 49q184 0 270 -98q78 -91 78 -252v-541q0 -29 -22.5 -50t-53.5 -21 q-30 0 -52.5 19t-23.5 46q-124 -65 -270 -65q-86 0 -159 28t-123 91.5t-50 152.5zM229 260q0 -80 69 -121t165 -41q110 0 227 60v288q-210 -9 -305 -36q-156 -41 -156 -150zM260 1356q0 98 70 167.5t168 69.5t166.5 -69.5t68.5 -167.5q0 -100 -68.5 -169t-166.5 -69 q-99 0 -168.5 69.5t-69.5 168.5zM336 1356q0 -69 47 -116.5t115 -47.5t114.5 47.5t46.5 116.5q0 68 -47 116t-114 48t-114.5 -48t-47.5 -116z" />
<glyph unicode="&#xe6;" horiz-adv-x="1650" d="M88 248q0 52 19.5 93t58 70t88 50t118 34t139 20t159.5 11v64q0 120 -47 176q-49 61 -158 61q-88 0 -180 -36q-19 -8 -39.5 -19.5t-33 -17.5t-24.5 -6q-23 0 -39 17t-16 40q0 27 25 47t71 41q111 49 252 49q133 0 205 -65q58 -51 82 -140q55 96 149 150.5t213 54.5 q200 0 322 -129q113 -119 113 -301q0 -36 -21 -58t-59 -22h-660q6 -134 78 -221q92 -115 262 -115q122 0 219 51q12 7 27 15.5t22.5 13t16.5 7.5t18 3q25 0 41.5 -17t16.5 -42q0 -42 -78 -80q-127 -67 -293 -67q-237 0 -377 161q-157 -161 -366 -161q-148 0 -236 76t-88 192 zM231 252q0 -67 59.5 -114.5t164.5 -47.5q79 0 150 35.5t124 93.5q-54 91 -57 213q-220 -6 -330.5 -48.5t-110.5 -131.5zM825 526h594q-6 133 -76 209q-82 92 -213 92q-147 0 -231 -100q-68 -77 -74 -201z" />
<glyph unicode="&#xe7;" horiz-adv-x="964" d="M92 463q0 181 105 305q70 84 173 129t222 45q129 0 227 -49q70 -34 70 -80q0 -25 -18 -42t-44 -17q-8 0 -16 2t-14 4.5t-18.5 8.5t-22.5 11q-79 35 -164 35q-163 0 -266 -119q-82 -95 -82 -233q0 -160 94 -260q96 -99 256 -99q99 0 168 29q15 6 29.5 14t23 11.5t19.5 3.5 q24 0 41.5 -18.5t17.5 -43.5q0 -27 -20.5 -45.5t-65.5 -36.5q-89 -32 -186 -38l2 -52q81 -6 131.5 -46.5t50.5 -106.5q0 -64 -40.5 -106.5t-95.5 -58.5t-120 -16q-44 0 -74 9q-35 11 -35 41q0 17 12.5 29t28.5 12q8 0 31.5 -3.5t44.5 -3.5q59 0 102 24t43 75 q0 43 -36.5 64.5t-90.5 21.5q-21 0 -33.5 12.5t-9.5 36.5l7 70q-201 12 -320 137q-127 133 -127 344z" />
<glyph unicode="&#xe8;" horiz-adv-x="1073" d="M92 473q0 202 123 334q125 135 338 135q202 0 321 -129q113 -119 113 -301q0 -38 -21 -65t-59 -27h-659q12 -126 80 -205q95 -113 258 -113q126 0 221 50q10 5 25.5 13.5t22.5 12.5t17 7t19 3q24 0 40.5 -18t16.5 -43q0 -22 -17.5 -39.5t-58.5 -40.5q-127 -67 -292 -67 q-232 0 -367 151q-121 130 -121 342zM248 528h594q-6 127 -76 203q-83 90 -213 90q-146 0 -231 -98q-64 -73 -74 -195zM397 1520q0 23 18.5 40t43.5 17q35 0 57 -43l158 -283q12 -21 12 -39q0 -21 -15.5 -35t-37.5 -14q-32 0 -53 37l-166 275q-17 28 -17 45z" />
<glyph unicode="&#xe9;" horiz-adv-x="1073" d="M92 473q0 202 123 334q125 135 338 135q202 0 321 -129q113 -119 113 -301q0 -38 -21 -65t-59 -27h-659q12 -126 80 -205q95 -113 258 -113q126 0 221 50q10 5 25.5 13.5t22.5 12.5t17 7t19 3q24 0 40.5 -18t16.5 -43q0 -22 -17.5 -39.5t-58.5 -40.5q-127 -67 -292 -67 q-232 0 -367 151q-121 130 -121 342zM248 528h594q-6 127 -76 203q-83 90 -213 90q-146 0 -231 -98q-64 -73 -74 -195zM387 1212q0 18 12 39l156 283q21 43 57 43q26 0 44 -17t18 -40q0 -17 -17 -45l-165 -275q-23 -37 -54 -37q-21 0 -36 14t-15 35z" />
<glyph unicode="&#xea;" horiz-adv-x="1073" d="M92 473q0 202 123 334q125 135 338 135q202 0 321 -129q113 -119 113 -301q0 -38 -21 -65t-59 -27h-659q12 -126 80 -205q95 -113 258 -113q126 0 221 50q10 5 25.5 13.5t22.5 12.5t17 7t19 3q24 0 40.5 -18t16.5 -43q0 -22 -17.5 -39.5t-58.5 -40.5q-127 -67 -292 -67 q-232 0 -367 151q-121 130 -121 342zM205 1245q0 21 24 45l254 260q25 25 47 25q25 0 50 -25l251 -260q27 -31 27 -45q0 -25 -16 -40t-39 -15t-39 16l-234 240l-231 -240q-16 -16 -39 -16q-24 0 -39.5 14.5t-15.5 40.5zM248 528h594q-6 127 -76 203q-83 90 -213 90 q-146 0 -231 -98q-64 -73 -74 -195z" />
<glyph unicode="&#xeb;" horiz-adv-x="1073" d="M92 473q0 202 123 334q125 135 338 135q202 0 321 -129q113 -119 113 -301q0 -38 -21 -65t-59 -27h-659q12 -126 80 -205q95 -113 258 -113q126 0 221 50q10 5 25.5 13.5t22.5 12.5t17 7t19 3q24 0 40.5 -18t16.5 -43q0 -22 -17.5 -39.5t-58.5 -40.5q-127 -67 -292 -67 q-232 0 -367 151q-121 130 -121 342zM248 528h594q-6 127 -76 203q-83 90 -213 90q-146 0 -231 -98q-64 -73 -74 -195zM248 1368q0 37 26.5 62.5t63.5 25.5q38 0 64 -25.5t26 -62.5q0 -38 -26 -65t-64 -27q-37 0 -63.5 27t-26.5 65zM633 1368q0 37 26.5 62.5t63.5 25.5 t63.5 -25.5t26.5 -62.5q0 -38 -26.5 -65t-63.5 -27t-63.5 27t-26.5 65z" />
<glyph unicode="&#xec;" horiz-adv-x="446" d="M82 1520q0 23 18 40t43 17q36 0 58 -43l157 -283q13 -23 13 -39q0 -21 -16 -35t-38 -14q-32 0 -53 37l-166 275q-16 27 -16 45zM147 51v819q0 30 22.5 51t53.5 21t53.5 -21t22.5 -51v-819q0 -29 -22.5 -50t-53.5 -21t-53.5 21t-22.5 50z" />
<glyph unicode="&#xed;" horiz-adv-x="446" d="M82 1212q0 18 12 39l156 283q21 43 57 43q26 0 44 -17t18 -40q0 -17 -17 -45l-166 -275q-23 -37 -53 -37q-21 0 -36 14t-15 35zM147 51v819q0 30 22.5 51t53.5 21t53.5 -21t22.5 -51v-819q0 -29 -22.5 -50t-53.5 -21t-53.5 21t-22.5 50z" />
<glyph unicode="&#xee;" horiz-adv-x="446" d="M-100 1245q0 21 24 45l254 260q25 25 47 25q24 0 49 -25l252 -260q27 -31 27 -45q0 -25 -16 -40t-39 -15t-39 16l-234 240l-231 -240q-16 -16 -39 -16q-24 0 -39.5 14.5t-15.5 40.5zM147 51v819q0 30 22.5 51t53.5 21t53.5 -21t22.5 -51v-819q0 -29 -22.5 -50t-53.5 -21 t-53.5 21t-22.5 50z" />
<glyph unicode="&#xef;" horiz-adv-x="446" d="M-57 1368q0 37 26.5 62.5t63.5 25.5q38 0 64 -25.5t26 -62.5q0 -38 -26 -65t-64 -27q-37 0 -63.5 27t-26.5 65zM147 51v819q0 30 22.5 51t53.5 21t53.5 -21t22.5 -51v-819q0 -29 -22.5 -50t-53.5 -21t-53.5 21t-22.5 50zM328 1368q0 37 26.5 62.5t63.5 25.5t63.5 -25.5 t26.5 -62.5q0 -38 -26.5 -65t-63.5 -27t-63.5 27t-26.5 65z" />
<glyph unicode="&#xf0;" horiz-adv-x="1046" d="M92 424q0 174 113 287q60 60 139.5 91.5t161.5 31.5q126 0 239 -72q-66 197 -231 368l-168 -129q-24 -16 -41 -16q-20 0 -34.5 15.5t-14.5 37.5q0 27 25 43l151 119q-80 76 -108 98q-25 21 -25 45q0 31 20.5 51.5t49.5 20.5q30 0 92 -55q53 -43 84 -76l149 115 q19 16 37 16q23 0 37 -15t14 -38q0 -27 -26 -43l-133 -102q154 -163 242.5 -359t88.5 -401q0 -116 -35 -208.5t-95.5 -150t-138.5 -88t-167 -30.5q-173 0 -285 100q-141 122 -141 344zM231 424q0 -159 93 -246q78 -72 194 -72q128 0 211.5 89t83.5 262q0 90 -18 176 q-129 84 -269 84q-59 0 -117 -24t-100 -68q-78 -78 -78 -201z" />
<glyph unicode="&#xf1;" horiz-adv-x="1132" d="M147 51v817q0 31 22.5 52.5t53.5 21.5t53.5 -21.5t22.5 -52.5v-100q46 87 131 130.5t193 43.5q171 0 268 -84q110 -96 110 -309v-498q0 -29 -22 -50t-53 -21t-52.5 21t-21.5 50v465q0 166 -76 236q-62 59 -182 59q-166 0 -242 -141q-53 -101 -53 -244v-375 q0 -29 -22.5 -50t-53.5 -21t-53.5 21t-22.5 50zM207 1331q0 41 45 86q57 60 143 60q80 0 162 -54q7 -4 25 -16.5t26.5 -17.5t22.5 -12t26.5 -10t26.5 -3q28 0 50.5 14.5t34 31.5t28 31.5t34.5 14.5q23 0 36.5 -15.5t13.5 -39.5q0 -43 -43 -86q-55 -58 -144 -58 q-75 0 -162 56q-5 3 -24 15.5t-26 16.5t-22 11t-27.5 9.5t-26.5 2.5q-29 0 -51.5 -14t-33.5 -31t-27.5 -31t-35.5 -14q-23 0 -37 15t-14 38z" />
<glyph unicode="&#xf2;" horiz-adv-x="1163" d="M92 461q0 210 137 344q67 65 158.5 101t194.5 36q212 0 352 -137q139 -136 139 -344q0 -101 -36.5 -189.5t-102.5 -152.5q-139 -139 -352 -139q-104 0 -195.5 36.5t-157.5 102.5q-137 134 -137 342zM240 461q0 -148 92 -250q98 -109 250 -109q154 0 252 109q90 99 90 250 t-90 250q-97 108 -252 108q-153 0 -250 -108q-92 -102 -92 -250zM436 1520q0 23 18.5 40t43.5 17q35 0 57 -43l158 -283q12 -21 12 -39q0 -21 -15.5 -35t-37.5 -14q-33 0 -54 37l-165 275q-17 28 -17 45z" />
<glyph unicode="&#xf3;" horiz-adv-x="1163" d="M92 461q0 210 137 344q67 65 158.5 101t194.5 36q212 0 352 -137q139 -136 139 -344q0 -101 -36.5 -189.5t-102.5 -152.5q-139 -139 -352 -139q-104 0 -195.5 36.5t-157.5 102.5q-137 134 -137 342zM240 461q0 -148 92 -250q98 -109 250 -109q154 0 252 109q90 99 90 250 t-90 250q-97 108 -252 108q-153 0 -250 -108q-92 -102 -92 -250zM436 1212q0 16 13 39l155 283q21 43 58 43q26 0 43.5 -16.5t17.5 -40.5q0 -18 -16 -45l-166 -275q-23 -37 -54 -37q-21 0 -36 14t-15 35z" />
<glyph unicode="&#xf4;" horiz-adv-x="1163" d="M92 461q0 210 137 344q67 65 158.5 101t194.5 36q212 0 352 -137q139 -136 139 -344q0 -101 -36.5 -189.5t-102.5 -152.5q-139 -139 -352 -139q-104 0 -195.5 36.5t-157.5 102.5q-137 134 -137 342zM240 461q0 -148 92 -250q98 -109 250 -109q154 0 252 109q90 99 90 250 t-90 250q-97 108 -252 108q-153 0 -250 -108q-92 -102 -92 -250zM254 1245q0 20 25 45l253 260q25 25 48 25q24 0 49 -25l252 -260q26 -30 26 -45q0 -25 -16 -40t-39 -15t-39 16l-233 240l-232 -240q-16 -16 -39 -16q-24 0 -39.5 14.5t-15.5 40.5z" />
<glyph unicode="&#xf5;" horiz-adv-x="1163" d="M92 461q0 210 137 344q67 65 158.5 101t194.5 36q212 0 352 -137q139 -136 139 -344q0 -101 -36.5 -189.5t-102.5 -152.5q-139 -139 -352 -139q-104 0 -195.5 36.5t-157.5 102.5q-137 134 -137 342zM240 461q0 -148 92 -250q98 -109 250 -109q154 0 252 109q90 99 90 250 t-90 250q-97 108 -252 108q-153 0 -250 -108q-92 -102 -92 -250zM242 1331q0 41 45 86q57 60 143 60q80 0 162 -54q7 -4 25 -16.5t26.5 -17.5t22.5 -12t26.5 -10t26.5 -3q28 0 50.5 14.5t34 31.5t28 31.5t34.5 14.5q23 0 36 -15.5t13 -39.5q0 -43 -43 -86q-55 -58 -143 -58 q-75 0 -162 56q-6 4 -20.5 13.5t-21 13l-19.5 10.5t-21.5 10t-20.5 5.5t-24 2.5q-29 0 -51 -14t-33.5 -31t-27.5 -31t-35 -14q-23 0 -37 15t-14 38z" />
<glyph unicode="&#xf6;" horiz-adv-x="1163" d="M92 461q0 210 137 344q67 65 158.5 101t194.5 36q212 0 352 -137q139 -136 139 -344q0 -101 -36.5 -189.5t-102.5 -152.5q-139 -139 -352 -139q-104 0 -195.5 36.5t-157.5 102.5q-137 134 -137 342zM240 461q0 -148 92 -250q98 -109 250 -109q154 0 252 109q90 99 90 250 t-90 250q-97 108 -252 108q-153 0 -250 -108q-92 -102 -92 -250zM297 1368q0 37 26.5 62.5t63.5 25.5q38 0 64 -25.5t26 -62.5q0 -38 -26 -65t-64 -27q-37 0 -63.5 27t-26.5 65zM682 1368q0 37 26.5 62.5t63.5 25.5t63.5 -25.5t26.5 -62.5q0 -38 -26.5 -65t-63.5 -27 t-63.5 27t-26.5 65z" />
<glyph unicode="&#xf7;" horiz-adv-x="1191" d="M72 723q0 28 20 49t47 21h912q29 0 49 -21t20 -49q0 -31 -20 -51.5t-49 -20.5h-912q-28 0 -47.5 20.5t-19.5 51.5zM500 1163q0 38 28 65t68 27q38 0 65 -27t27 -65q0 -40 -27 -67t-65 -27q-40 0 -68 27t-28 67zM502 281q0 41 27 68.5t67 27.5t67 -27.5t27 -68.5 q0 -39 -27 -66t-67 -27t-67 27t-27 66z" />
<glyph unicode="&#xf8;" horiz-adv-x="1179" d="M92 461q0 210 137 344q67 65 158.5 101t194.5 36q161 0 292 -88l64 74q11 14 31 14q17 0 28 -11t11 -28q0 -15 -11 -26l-63 -74q66 -64 102.5 -152.5t36.5 -189.5t-36.5 -189.5t-102.5 -152.5q-139 -139 -352 -139q-163 0 -285 81l-57 -67q-14 -14 -33 -14 q-16 0 -27.5 10.5t-11.5 27.5q0 15 12 27l56 66q-144 144 -144 350zM240 461q0 -145 86 -244l460 535q-86 67 -204 67q-153 0 -250 -108q-92 -102 -92 -250zM385 164q87 -62 197 -62q154 0 252 109q90 99 90 250q0 138 -80 237z" />
<glyph unicode="&#xf9;" horiz-adv-x="1118" d="M133 391v479q0 31 22 51.5t54 20.5q31 0 52.5 -20.5t21.5 -51.5v-467q0 -111 39 -180q28 -50 88.5 -80t148.5 -30t149 30t89 80q37 65 37 180v467q0 30 22 51t53 21t53.5 -21t22.5 -51v-479q0 -158 -70 -262q-47 -72 -139 -110.5t-217 -38.5q-256 0 -358 149 q-68 106 -68 262zM414 1520q0 23 18 40t43 17q35 0 57 -43l158 -283q12 -21 12 -39q0 -21 -15.5 -35t-37.5 -14q-32 0 -53 37l-166 275q-16 27 -16 45z" />
<glyph unicode="&#xfa;" horiz-adv-x="1118" d="M133 391v479q0 31 22 51.5t54 20.5q31 0 52.5 -20.5t21.5 -51.5v-467q0 -111 39 -180q28 -50 88.5 -80t148.5 -30t149 30t89 80q37 65 37 180v467q0 30 22 51t53 21t53.5 -21t22.5 -51v-479q0 -158 -70 -262q-47 -72 -139 -110.5t-217 -38.5q-256 0 -358 149 q-68 106 -68 262zM414 1212q0 18 12 39l156 283q21 43 57 43q26 0 43.5 -16.5t17.5 -40.5q0 -18 -16 -45l-166 -275q-23 -37 -53 -37q-21 0 -36 14t-15 35z" />
<glyph unicode="&#xfb;" horiz-adv-x="1118" d="M133 391v479q0 31 22 51.5t54 20.5q31 0 52.5 -20.5t21.5 -51.5v-467q0 -111 39 -180q28 -50 88.5 -80t148.5 -30t149 30t89 80q37 65 37 180v467q0 30 22 51t53 21t53.5 -21t22.5 -51v-479q0 -158 -70 -262q-47 -72 -139 -110.5t-217 -38.5q-256 0 -358 149 q-68 106 -68 262zM231 1245q0 20 25 45l254 260q25 25 47 25q24 0 49 -25l252 -260q27 -31 27 -45q0 -25 -16.5 -40t-39.5 -15q-22 0 -38 16l-234 240l-231 -240q-16 -16 -39 -16q-24 0 -40 15t-16 40z" />
<glyph unicode="&#xfc;" horiz-adv-x="1118" d="M133 391v479q0 31 22 51.5t54 20.5q31 0 52.5 -20.5t21.5 -51.5v-467q0 -111 39 -180q28 -50 88.5 -80t148.5 -30t149 30t89 80q37 65 37 180v467q0 30 22 51t53 21t53.5 -21t22.5 -51v-479q0 -158 -70 -262q-47 -72 -139 -110.5t-217 -38.5q-256 0 -358 149 q-68 106 -68 262zM276 1368q0 36 27 62t64 26q38 0 64 -25.5t26 -62.5q0 -38 -26 -65t-64 -27q-37 0 -64 27t-27 65zM662 1368q0 37 26.5 62.5t63.5 25.5t63.5 -25.5t26.5 -62.5q0 -38 -26.5 -65t-63.5 -27t-63.5 27t-26.5 65z" />
<glyph unicode="&#xfd;" horiz-adv-x="942" d="M14 862q0 34 24 58t58 24q32 0 51.5 -16t26.5 -37l315 -754l279 740q26 67 80 67q33 0 56.5 -23.5t23.5 -56.5q0 -22 -17 -65l-333 -848q-165 -424 -461 -424q-32 0 -53 21t-21 51q0 31 21 52t53 21q102 0 170.5 68t128.5 205l-383 860q-19 44 -19 57zM328 1212 q0 18 12 39l156 283q21 43 57 43q26 0 43.5 -16.5t17.5 -40.5q0 -18 -16 -45l-166 -275q-23 -37 -53 -37q-21 0 -36 14t-15 35z" />
<glyph unicode="&#xfe;" horiz-adv-x="1075" d="M147 -408v1747q0 31 22.5 52.5t53.5 21.5t53.5 -21.5t22.5 -52.5v-407q72 10 145 10q256 0 398 -133q141 -128 141 -346q0 -213 -115 -338q-69 -73 -163 -109t-191 -36q-130 0 -215 40v-428q0 -30 -22.5 -50.5t-53.5 -20.5t-53.5 20.5t-22.5 50.5zM299 145 q85 -43 201 -43q146 0 241 95q93 93 93 266q0 162 -99 258q-100 100 -276 100q-89 0 -160 -12v-664z" />
<glyph unicode="&#xff;" horiz-adv-x="942" d="M14 862q0 34 24 58t58 24q32 0 51.5 -16t26.5 -37l315 -754l279 740q26 67 80 67q33 0 56.5 -23.5t23.5 -56.5q0 -22 -17 -65l-333 -848q-165 -424 -461 -424q-32 0 -53 21t-21 51q0 31 21 52t53 21q102 0 170.5 68t128.5 205l-383 860q-19 44 -19 57zM188 1368 q0 36 27 62t64 26q38 0 64 -25.5t26 -62.5q0 -38 -26 -65t-64 -27q-37 0 -64 27t-27 65zM573 1368q0 36 27 62t64 26t63.5 -25.5t26.5 -62.5q0 -38 -26.5 -65t-63.5 -27t-64 27t-27 65z" />
<glyph unicode="&#x152;" horiz-adv-x="2465" d="M96 694q0 149 58.5 283.5t157 230t233.5 151.5t282 56q165 0 310.5 -69t248.5 -191v160q0 32 24 56t58 24h863q29 0 50 -22t21 -50q0 -31 -21 -52.5t-50 -21.5h-781v-475v-2h674q30 0 51 -22t21 -52t-21 -50.5t-51 -20.5h-674v-482h781q29 0 50 -22t21 -51t-21 -50.5 t-50 -21.5h-863q-34 0 -58 24t-24 56v153q-102 -120 -247.5 -186.5t-311.5 -66.5q-147 0 -282 55.5t-233.5 150t-157 227.5t-58.5 281zM270 694q0 -113 43.5 -216.5t117.5 -179.5t177 -121.5t217 -45.5t217.5 45.5t178 122t118 180t43.5 215.5q0 150 -73.5 280.5t-202.5 209 t-281 78.5q-150 0 -278.5 -78.5t-202.5 -209t-74 -280.5z" />
<glyph unicode="&#x153;" horiz-adv-x="1906" d="M92 461q0 210 137 344q67 65 158.5 101t194.5 36q212 0 352 -137q26 -26 59 -72q12 24 56 74q125 135 337 135q203 0 322 -129q113 -119 113 -301q0 -38 -21 -65t-59 -27h-660q12 -126 80 -205q95 -113 258 -113q126 0 221 50q10 5 25.5 13.5t22.5 12.5t17 7t19 3 q24 0 41 -18t17 -43q0 -22 -17.5 -39.5t-58.5 -40.5q-127 -67 -293 -67q-231 0 -366 151q-28 28 -50 64q-21 -34 -63 -76q-139 -139 -352 -139q-104 0 -195.5 36.5t-157.5 102.5q-137 134 -137 342zM240 461q0 -148 92 -250q98 -109 250 -109q154 0 252 109q90 99 90 250 t-90 250q-97 108 -252 108q-153 0 -250 -108q-92 -102 -92 -250zM1081 528h594q-6 127 -76 203q-83 90 -213 90q-146 0 -231 -98q-64 -73 -74 -195z" />
<glyph unicode="&#x178;" horiz-adv-x="1157" d="M2 1335q0 34 23 56t57 22q44 0 72 -41l424 -596l426 596q28 41 71 41q34 0 57 -23t23 -55q0 -28 -16 -57l-480 -666v-553q0 -32 -23.5 -55.5t-57.5 -23.5t-58 23.5t-24 55.5v553l-476 668q-18 29 -18 55zM295 1831q0 37 26.5 62.5t63.5 25.5q38 0 64 -25.5t26 -62.5 q0 -38 -26 -65t-64 -27q-37 0 -63.5 27t-26.5 65zM680 1831q0 37 26.5 62.5t63.5 25.5t63.5 -25.5t26.5 -62.5q0 -38 -26.5 -65t-63.5 -27t-63.5 27t-26.5 65z" />
<glyph unicode="&#x2c6;" horiz-adv-x="854" d="M100 1245q0 20 25 45l254 260q25 25 47 25q24 0 49 -25l252 -260q27 -31 27 -45q0 -25 -16.5 -40t-39.5 -15t-39 16l-233 240l-231 -240q-16 -16 -39 -16q-24 0 -40 15t-16 40z" />
<glyph unicode="&#x2dc;" horiz-adv-x="854" d="M88 1331q0 41 45 86q57 60 143 60q80 0 162 -54q7 -4 25 -16.5t26.5 -17.5t22.5 -12t26.5 -10t26.5 -3q28 0 50.5 14.5t34.5 31.5t28.5 31.5t34.5 14.5q23 0 36 -15.5t13 -39.5q0 -43 -43 -86q-55 -58 -144 -58q-74 0 -161 56q-6 4 -20.5 13.5t-21 13l-19.5 10.5 t-21.5 10t-20.5 5.5t-24 2.5q-29 0 -51.5 -14t-33.5 -31t-27.5 -31t-35.5 -14q-23 0 -37 15t-14 38z" />
<glyph unicode="&#x2000;" horiz-adv-x="1001" />
<glyph unicode="&#x2001;" horiz-adv-x="2003" />
<glyph unicode="&#x2002;" horiz-adv-x="1001" />
<glyph unicode="&#x2003;" horiz-adv-x="2003" />
<glyph unicode="&#x2004;" horiz-adv-x="667" />
<glyph unicode="&#x2005;" horiz-adv-x="500" />
<glyph unicode="&#x2006;" horiz-adv-x="333" />
<glyph unicode="&#x2007;" horiz-adv-x="333" />
<glyph unicode="&#x2008;" horiz-adv-x="250" />
<glyph unicode="&#x2009;" horiz-adv-x="400" />
<glyph unicode="&#x200a;" horiz-adv-x="111" />
<glyph unicode="&#x2010;" horiz-adv-x="1024" d="M174 594q0 28 20.5 49t49.5 21h536q29 0 49.5 -21t20.5 -49q0 -29 -20.5 -50.5t-49.5 -21.5h-536q-29 0 -49.5 21.5t-20.5 50.5z" />
<glyph unicode="&#x2011;" horiz-adv-x="1024" d="M174 594q0 28 20.5 49t49.5 21h536q29 0 49.5 -21t20.5 -49q0 -29 -20.5 -50.5t-49.5 -21.5h-536q-29 0 -49.5 21.5t-20.5 50.5z" />
<glyph unicode="&#x2012;" horiz-adv-x="1024" d="M174 594q0 28 20.5 49t49.5 21h536q29 0 49.5 -21t20.5 -49q0 -29 -20.5 -50.5t-49.5 -21.5h-536q-29 0 -49.5 21.5t-20.5 50.5z" />
<glyph unicode="&#x2013;" horiz-adv-x="1433" d="M174 516q0 29 20.5 50.5t49.5 21.5h946q28 0 49 -21.5t21 -50.5q0 -30 -21 -51t-49 -21h-946q-29 0 -49.5 20.5t-20.5 51.5z" />
<glyph unicode="&#x2014;" horiz-adv-x="2519" d="M174 516q0 29 20.5 50.5t49.5 21.5h2031q28 0 49 -21.5t21 -50.5q0 -30 -21 -51t-49 -21h-2031q-29 0 -49.5 20.5t-20.5 51.5z" />
<glyph unicode="&#x2018;" horiz-adv-x="428" d="M109 1194q0 90 63.5 154.5t114.5 64.5q12 0 20 -8t8 -21q0 -17 -16.5 -32.5t-33.5 -35t-17 -44.5q0 -17 11 -29.5t24.5 -21t24.5 -27t11 -45.5q0 -38 -24.5 -65t-71.5 -27q-54 0 -84 37t-30 100z" />
<glyph unicode="&#x2019;" horiz-adv-x="428" d="M109 1323q0 38 24.5 65t71.5 27q54 0 84 -37t30 -100q0 -90 -62.5 -154.5t-113.5 -64.5q-13 0 -21.5 8t-8.5 20q0 13 11 26.5t23.5 23t23.5 26.5t11 37q0 17 -11.5 29.5t-25 21t-25 27t-11.5 45.5z" />
<glyph unicode="&#x201a;" horiz-adv-x="401" d="M100 72q0 38 25 65t72 27q54 0 84 -37t30 -100q0 -90 -63 -156t-113 -66q-13 0 -22 8.5t-9 20.5q0 20 35 51.5t35 61.5q0 14 -7.5 25t-18.5 19t-22 17.5t-18.5 25.5t-7.5 38z" />
<glyph unicode="&#x201c;" horiz-adv-x="743" d="M109 1194q0 90 63.5 154.5t114.5 64.5q12 0 20 -8t8 -21q0 -17 -16.5 -32.5t-33.5 -35t-17 -44.5q0 -17 11 -29.5t24.5 -21t24.5 -27t11 -45.5q0 -38 -24.5 -65t-71.5 -27q-54 0 -84 37t-30 100zM424 1194q0 90 63 154.5t115 64.5q12 0 20.5 -8t8.5 -21q0 -17 -17 -32.5 t-34 -35t-17 -44.5q0 -17 11.5 -29.5t24.5 -21t24.5 -27t11.5 -45.5q0 -38 -24.5 -65t-71.5 -27q-55 0 -85 37t-30 100z" />
<glyph unicode="&#x201d;" horiz-adv-x="743" d="M109 1323q0 38 24.5 65t71.5 27q54 0 84 -37t30 -100q0 -90 -62.5 -154.5t-113.5 -64.5q-13 0 -21.5 8t-8.5 20q0 13 11 26.5t23.5 23t23.5 26.5t11 37q0 17 -11.5 29.5t-25 21t-25 27t-11.5 45.5zM424 1323q0 38 24.5 65t71.5 27q55 0 85 -37t30 -100q0 -90 -63 -154.5 t-115 -64.5q-12 0 -20.5 8t-8.5 20q0 17 17 33t34 35.5t17 44.5q0 17 -11 29.5t-25 21t-25 27t-11 45.5z" />
<glyph unicode="&#x201e;" horiz-adv-x="716" d="M100 72q0 38 25 65t72 27q54 0 84 -37t30 -100q0 -90 -63 -156t-113 -66q-13 0 -22 8.5t-9 20.5q0 20 35 51.5t35 61.5q0 14 -7.5 25t-18.5 19t-22 17.5t-18.5 25.5t-7.5 38zM416 72q0 38 24.5 65t71.5 27q55 0 85 -37t30 -100q0 -47 -19.5 -90.5t-48 -71t-58.5 -44 t-52 -16.5q-12 0 -20.5 8.5t-8.5 20.5q0 20 33.5 51.5t33.5 61.5q0 14 -7.5 25t-17.5 19t-20.5 17.5t-18 25.5t-7.5 38z" />
<glyph unicode="&#x2022;" horiz-adv-x="1044" d="M109 698q0 170 121.5 292t291.5 122t292 -122t122 -292t-122 -291.5t-292 -121.5t-291.5 121.5t-121.5 291.5z" />
<glyph unicode="&#x2026;" horiz-adv-x="1400" d="M100 76q0 40 27.5 67t67.5 27t67 -27t27 -67t-27 -67t-67 -27t-67.5 27t-27.5 67zM612 76q0 40 27.5 67t67.5 27q39 0 66.5 -27.5t27.5 -66.5t-27.5 -66.5t-66.5 -27.5q-40 0 -67.5 27t-27.5 67zM1124 76q0 40 27.5 67t67.5 27q38 0 65 -27t27 -67t-27 -67t-65 -27 q-40 0 -67.5 27t-27.5 67z" />
<glyph unicode="&#x202f;" horiz-adv-x="400" />
<glyph unicode="&#x2039;" horiz-adv-x="696" d="M80 461q0 25 20 49l398 410q17 20 49 20q29 0 49 -19t20 -47q0 -29 -20 -49l-352 -364l352 -365q20 -20 20 -49t-19.5 -47t-49.5 -18q-32 0 -49 20l-398 410q-20 24 -20 49z" />
<glyph unicode="&#x203a;" horiz-adv-x="696" d="M80 47q0 26 20 49l351 365l-351 364q-20 23 -20 49q0 28 19.5 47t47.5 19q32 0 52 -20l395 -410q22 -22 22 -49t-22 -49l-395 -410q-20 -20 -49 -20q-30 0 -50 18t-20 47z" />
<glyph unicode="&#x205f;" horiz-adv-x="500" />
<glyph unicode="&#x20ac;" d="M-23 559q0 19 12 32t31 13h84q-4 62 -4 94q0 44 6 90h-86q-19 0 -31 12t-12 31t12.5 33.5t30.5 14.5h103q61 235 256.5 384.5t431.5 149.5q186 0 336 -70q96 -42 96 -100q0 -32 -22.5 -54t-53.5 -22q-13 0 -32 10t-50.5 27t-64.5 29q-99 35 -211 35q-171 0 -315 -108 t-201 -281h717q18 0 30.5 -14.5t12.5 -33.5t-12 -31t-31 -12h-738q-6 -46 -6 -90q0 -50 6 -94h623q19 0 31 -13t12 -32t-12 -32t-31 -13h-604q36 -119 116 -207.5t184.5 -133t219.5 -44.5q120 0 211 33q35 13 70 30.5t55.5 27t34.5 9.5q31 0 50 -20.5t19 -54.5 q0 -33 -24.5 -56.5t-71.5 -46.5q-160 -71 -344 -71q-252 0 -443 144t-247 390h-101q-19 0 -31 13t-12 32z" />
<glyph unicode="&#x2122;" horiz-adv-x="1591" d="M57 1415q0 20 12.5 32.5t30.5 12.5h512q19 0 31 -12.5t12 -32.5q0 -19 -12 -31t-31 -12h-206v-608q0 -20 -14.5 -33.5t-35.5 -13.5q-20 0 -33.5 13.5t-13.5 33.5v608h-209q-17 0 -30 13t-13 30zM739 764v657q0 19 14 32t38 13q22 0 34 -8.5t25 -30.5l254 -419l256 419 q13 22 25 30.5t34 8.5q24 0 37.5 -12.5t13.5 -32.5v-657q0 -20 -13.5 -33.5t-33.5 -13.5q-19 0 -33 13.5t-14 33.5v518l-227 -375q-16 -28 -45 -28q-27 0 -43 28l-227 375v-518q0 -20 -14.5 -33.5t-33.5 -13.5q-20 0 -33.5 13.5t-13.5 33.5z" />
<glyph unicode="&#x25fc;" horiz-adv-x="942" d="M0 0v942h942v-942h-942z" />
</font>
</defs>
</svg>
